<?xml version="1.0" standalone="no"?>
<!DOCTYPE svg PUBLIC "-//W3C//DTD SVG 1.1//EN" "http://www.w3.org/Graphics/SVG/1.1/DTD/svg11.dtd" >
<svg xmlns="http://www.w3.org/2000/svg">
<metadata>Generated by IcoMoon</metadata>
<defs>
<font id="FontFPD" horiz-adv-x="1024">
<font-face units-per-em="1024" ascent="960" descent="-64" />
<missing-glyph horiz-adv-x="1024" />
<glyph unicode="&#x20;" horiz-adv-x="512" d="" />
<glyph unicode="&#xe1a4;" glyph-name="photo" d="M512 212.667q88 0 151 63t63 151-63 151-151 63-151-63-63-151 63-151 151-63zM384 852.667h256l78-84h136q34 0 59-26t25-60v-512q0-34-25-60t-59-26h-684q-34 0-59 26t-25 60v512q0 34 25 60t59 26h136zM376 426.667q0 56 40 96t96 40 96-40 40-96-40-96-96-40-96 40-40 96z" />
<glyph unicode="&#xe606;" glyph-name="remove" d="M622.293 597.334l-110.293-110.293-110.293 110.293-60.373-60.373 110.293-110.293-110.293-110.293 60.373-60.373 110.293 110.293 110.293-110.293 60.373 60.373-110.293 110.293 110.293 110.293-60.373 60.373zM512 853.334c-235.733 0-426.667-190.933-426.667-426.667s190.933-426.667 426.667-426.667 426.667 190.933 426.667 426.667-190.933 426.667-426.667 426.667zM512 85.334c-188.16 0-341.333 153.173-341.333 341.333s153.173 341.333 341.333 341.333 341.333-153.173 341.333-341.333-153.173-341.333-341.333-341.333z" />
<glyph unicode="&#xe607;" glyph-name="reorder" d="M128 298.667h768v85.333h-768v-85.333zM128 128h768v85.333h-768v-85.333zM128 469.334h768v85.333h-768v-85.333zM128 725.334v-85.333h768v85.333h-768z" />
<glyph unicode="&#xe608;" glyph-name="facebook" d="M877.714 164.571q0-68-48.286-116.286t-116.286-48.286h-109.714v347.429h116l17.143 128h-133.143v81.714q0 30.857 16 47.429t54.857 16.571l75.429 0.571v118.286q-54.857 5.143-102.857 5.143-77.714 0-124.571-46t-46.857-128.857v-94.857h-128v-128h128v-347.429h-310.857q-68 0-116.286 48.286t-48.286 116.286v548.571q0 68 48.286 116.286t116.286 48.286h548.571q68 0 116.286-48.286t48.286-116.286v-548.571z" />
<glyph unicode="&#xe609;" glyph-name="instagram" d="M778.286 136v370.286h-77.143q11.429-36 11.429-74.857 0-72-36.571-132.857t-99.429-96.286-137.143-35.429q-112.571 0-192.571 77.429t-80 187.143q0 38.857 11.429 74.857h-80.571v-370.286q0-14.857 10-24.857t24.857-10h610.857q14.286 0 24.571 10t10.286 24.857zM616 440.571q0 70.857-51.714 120.857t-124.857 50q-72.571 0-124.286-50t-51.714-120.857 51.714-120.857 124.286-50q73.143 0 124.857 50t51.714 120.857zM778.286 646.286v94.286q0 16-11.429 27.714t-28 11.714h-99.429q-16.571 0-28-11.714t-11.429-27.714v-94.286q0-16.571 11.429-28t28-11.429h99.429q16.571 0 28 11.429t11.429 28zM877.714 765.143v-652.571q0-46.286-33.143-79.429t-79.429-33.143h-652.571q-46.286 0-79.429 33.143t-33.143 79.429v652.571q0 46.286 33.143 79.429t79.429 33.143h652.571q46.286 0 79.429-33.143t33.143-79.429z" />
<glyph unicode="&#xe616;" glyph-name="drag" d="M426.667 554.667h170.667v128h128l-213.333 213.333-213.333-213.333h128v-128zM384 512h-128v128l-213.333-213.333 213.333-213.333v128h128v170.667zM981.333 426.667l-213.333 213.333v-128h-128v-170.667h128v-128l213.333 213.333zM597.333 298.667h-170.667v-128h-128l213.333-213.333 213.333 213.333h-128v128z" />
<glyph unicode="&#xe619;" glyph-name="add" d="M810.667 810.667h-597.333c-47.147 0-85.333-38.187-85.333-85.333v-597.333c0-47.147 38.187-85.333 85.333-85.333h597.333c47.147 0 85.333 38.187 85.333 85.333v597.333c0 47.147-38.187 85.333-85.333 85.333zM725.333 384h-170.667v-170.667h-85.333v170.667h-170.667v85.333h170.667v170.667h85.333v-170.667h170.667v-85.333z" />
<glyph unicode="&#xe61c;" glyph-name="flip-horizontal" d="M240 456.8c-115.2-251.2-210.4-465.6-210.4-477.6 0-40 13.6-43.2 204-43.2s210.4 4 228.8 44c15.2 32 13.6 932-0.8 932-7.2 0-95.2-183.2-221.6-455.2zM392 304v-288h-132.8c-123.2 0-132.8 0.8-128 14.4 9.6 23.2 256.8 560.8 259.2 561.6 0.8 0 1.6-129.6 1.6-288zM552 456c0-336 2.4-460.8 9.6-476 18.4-40 38.4-44 228.8-44s204 3.2 204 43.2c0 29.6-417.6 932.8-432 932.8-8.8 0-10.4-79.2-10.4-456z" />
<glyph unicode="&#xe61e;" glyph-name="flip-vertical" d="M968 930.4c-6.4-1.6-216-97.6-466.4-212-272-125.6-453.6-212.8-453.6-220 0-14.4 900-16 932-0.8 40 18.4 44 38.4 44 228.8 0 178.4-2.4 193.6-32 203.2-6.4 2.4-17.6 2.4-24 0.8zM48 397.6c0-14.4 903.2-432 932.8-432 40 0 43.2 13.6 43.2 204s-4 210.4-44 228.8c-32 15.2-932 13.6-932-0.8zM944 196c0-72.8-2.4-132-5.6-132-4 0.8-134.4 60-290.4 132l-284 132h580v-132z" />
<glyph unicode="&#xe900;" glyph-name="align-bottom" d="M1024-64h-1024v102.4h1024v-102.4zM409.6 960h-153.6v-819.2h153.6v819.2zM768 652.8h-153.6v-512h153.6v512z" />
<glyph unicode="&#xe901;" glyph-name="align-horizontal-middle" d="M1024 510.985h-253.969v253.968h-152.38v-253.968h-203.175v406.349h-152.381v-406.349h-262.095v-101.585h262.095v-406.349h152.381v406.349h203.175v-253.969h152.38v253.969h253.969v101.585z" />
<glyph unicode="&#xe902;" glyph-name="align-left" d="M102.4-64h-102.4v1024h102.4v-1024zM1024 704h-819.2v-153.6h819.2v153.6zM716.8 345.6h-512v-153.6h512v153.6z" />
<glyph unicode="&#xe903;" glyph-name="align-right" d="M921.6 874.667h102.4v-853.333h-102.4v853.333zM0 533.333h819.2v128h-819.2v-128zM307.2 234.667h512v128h-512v-128z" />
<glyph unicode="&#xe904;" glyph-name="align-top" d="M1024 960v-102.4h-1024v102.4h1024zM256-64h153.6v819.2h-153.6v-819.2zM614.4 243.2h153.6v512h-153.6v-512z" />
<glyph unicode="&#xe905;" glyph-name="align-vertical-middle" d="M452.267 960h102.4v-256h409.6v-153.6h-409.6v-204.8h256v-153.6h-256v-256h-102.4v256h-256v153.6h256v204.8h-409.6v153.6h409.6v256z" />
<glyph unicode="&#xe906;" glyph-name="back" d="M1024 504.887h-806.115l203.662 204.233-80.213 80.213-341.333-341.333 341.333-341.333 80.213 80.213-203.662 204.233h806.115v113.775z" />
<glyph unicode="&#xe907;" glyph-name="bin" d="M184.889 49.779c0-62.579 51.2-113.779 113.778-113.779h455.113c62.575 0 113.775 51.2 113.775 113.779v682.665h-682.665v-682.665zM298.667 618.667h455.113v-568.887h-455.113v568.887zM725.333 903.111l-56.887 56.889h-284.446l-56.889-56.889h-199.111v-113.778h796.446v113.778h-199.113z" />
<glyph unicode="&#xe908;" glyph-name="curved-text" d="M292.571 667.429v-141.566h73.733v70.783h108.533v-297.292h-89.658v-70.784h253.643v70.784h-90.253v297.292h109.124v-70.783h73.737v141.566h-438.859zM512-64c-283.136 0-512 228.864-512 512 0 120.601 41.523 231.355 111.076 318.77l68.124-62.77c-51.353-68.431-76.8-163.81-76.8-256 0-226.304 183.296-409.6 409.6-409.6s409.6 183.296 409.6 409.6c0 226.304-183.296 409.6-409.6 409.6-55.718 0-130.791-11.11-179.2-31.238l-55.16 77.125c70.192 36.129 149.859 56.514 234.36 56.514 283.136 0 512-228.864 512-512s-228.864-512-512-512z" />
<glyph unicode="&#xe909;" glyph-name="design-library" d="M536.828 949.812c-5.815 6.484-14.118 10.188-22.831 10.188s-17.011-3.704-22.831-10.188l22.831-20.488 22.831 20.488zM619.038 720.336h77.764l103.168 214.442c7.347 15.267 25.677 21.689 40.943 14.344l161.975-77.929c7.334-3.527 12.962-9.822 15.654-17.501 2.688-7.678 2.219-16.111-1.31-23.443l-139.358-289.661h115.447c9.297 0 18.091-4.215 23.915-11.462 5.824-7.249 8.047-16.747 6.042-25.822l-119.829-543.241c-3.102-14.054-15.561-24.068-29.956-24.068h-842.816c-16.942 0-30.677 13.734-30.677 30.677v722.986c0 16.943 13.734 30.677 30.677 30.677h153.065v29.239c0 3.297 0.532 6.573 1.574 9.701l59.916 179.748c4.176 12.527 15.898 20.976 29.103 20.976s24.927-8.449 29.103-20.976l59.916-179.748c1.043-3.128 1.574-6.403 1.574-9.701v-29.239h44.031c-9.875 17.486-15.511 37.683-15.511 59.197 0 20.084 8.561 41.127 17.444 58.384 9.393 18.249 21.583 36.79 33.265 53.035 11.763 16.356 23.458 31.001 32.179 41.523 4.373 5.277 8.034 9.556 10.62 12.539 1.293 1.492 2.321 2.663 3.034 3.474l0.836 0.944 0.235 0.262 0.068 0.077 0.038 0.040c0 0 0 0 22.831-20.488 22.831 20.488 22.869 20.448 22.869 20.448l0.068-0.077 0.235-0.262 0.836-0.944c0.717-0.811 1.741-1.982 3.034-3.474 2.586-2.983 6.246-7.262 10.62-12.539 8.721-10.522 20.416-25.167 32.179-41.523 11.682-16.245 23.872-34.786 33.267-53.035 8.883-17.257 17.442-38.301 17.442-58.384 0-21.514-5.636-41.711-15.509-59.197zM553.545 735.483c12.062 10.837 19.648 26.557 19.648 44.050 0 4.734-2.671 14.824-10.641 30.306-7.458 14.49-17.737 30.294-28.523 45.292-6.891 9.582-13.807 18.587-20.032 26.404-6.221-7.817-13.141-16.822-20.032-26.404-10.786-14.998-21.065-30.802-28.523-45.292-7.97-15.482-10.641-25.571-10.641-30.306 0-32.694 26.5-59.197 59.196-59.197 15.202 0 29.065 5.73 39.548 15.147zM543.236 662.553c-9.361-2.333-19.157-3.57-29.239-3.57s-19.878 1.238-29.239 3.57v-121.964h58.479v121.964zM628.924 479.236h-453.768l-106.298-481.886h779.987l106.295 481.886h-125.427c-0.439-0.013-0.879-0.013-1.318 0h-198.153c-0.439-0.013-0.879-0.013-1.318 0zM678.409 540.588h131.383l34.948 72.646-53.346 25.667c-15.27 7.345-21.692 25.677-14.345 40.944 7.343 15.267 25.677 21.689 40.943 14.344l53.35-25.667 25.353 52.698-53.346 25.665c-15.266 7.345-21.687 25.677-14.345 40.944 7.347 15.267 25.677 21.689 40.947 14.344l53.342-25.665 25.353 52.697-106.688 51.329-98.001-203.7c-0.141-0.307-0.29-0.611-0.439-0.913l-65.109-135.333zM667.281 658.982h-62.69v-118.394h5.73l56.96 118.394zM61.354 248.154l59.198 268.365c3.101 14.059 15.561 24.070 29.957 24.070h33.233v118.394h-122.388v-410.829zM245.095 540.588h58.478v178.31h-58.478v-178.31zM256.98 780.252h34.708l-17.354 52.062-17.354-52.062zM364.927 658.982v-118.394h58.478v118.394h-58.478zM483.319 206.336c0 16.943 13.734 30.677 30.677 30.677h239.663c16.943 0 30.677-13.734 30.677-30.677v-119.829c0-16.943-13.734-30.677-30.677-30.677h-239.663c-16.943 0-30.677 13.734-30.677 30.677v119.829zM544.674 175.659v-58.475h178.308v58.475h-178.308z" />
<glyph unicode="&#xe90a;" glyph-name="done" d="M325.421 216.085l-242.756 242.756-82.665-82.082 325.421-325.423 698.579 698.58-82.082 82.083-616.497-615.915z" />
<glyph unicode="&#xe90b;" glyph-name="download" d="M896 256v-192h-768v192h-128v-192c0-70.4 57.6-128 128-128h768c70.4 0 128 57.6 128 128v192h-128zM832 512l-90.24 90.24-165.76-165.12v522.88h-128v-522.88l-165.76 165.12-90.24-90.24 320-320 320 320z" />
<glyph unicode="&#xe90c;" glyph-name="svg" d="M234.762 644.176h554.476c54.542 0 98.15-43.828 98.15-97.887v-228.578c0-54.072-43.943-97.887-98.15-97.887h-554.476c-54.542 0-98.15 43.828-98.15 97.887v228.578c0 54.072 43.943 97.887 98.15 97.887zM234.36 611.535c-35.956 0-65.106-29.383-65.106-65.023v-229.019c0-35.912 29.453-65.023 65.106-65.023h555.278c35.956 0 65.106 29.383 65.106 65.023v229.019c0 35.912-29.453 65.023-65.106 65.023h-555.278zM299.984 546.247h32.323c36.267 0 65.443-29.229 65.443-65.284h-32.642c0 17.849-14.6 32.642-32.609 32.642h-32.712c-18.157 0-32.609-14.615-32.609-32.642 0-18.154 14.752-32.642 32.95-32.642h32.337c36.307 0 65.284-29.229 65.284-65.284 0-36.307-29.3-65.284-65.443-65.284h-32.323c-36.267 0-65.443 29.243-65.443 65.319v0.188h32.642v-0.369c0-17.601 14.6-32.498 32.609-32.498h32.712c18.157 0 32.609 14.615 32.609 32.642 0 18.154-14.752 32.642-32.95 32.642h-32.337c-36.307 0-65.284 29.229-65.284 65.284 0 36.307 29.3 65.284 65.443 65.284zM512 374.876l-48.965 171.372h-32.642l65.284-228.499h32.642l65.284 228.499h-32.642l-48.965-171.372zM756.817 415.677h-65.284v32.642h97.928v-130.57h-97.769c-36.267 0-65.443 29.317-65.443 65.477v97.54c0 36.537 29.3 65.477 65.443 65.477h97.769v-32.642h-97.932c-18.023 0-32.635-14.484-32.635-32.635v-97.939c0-18.023 14.484-32.635 32.635-32.635h65.29v65.284z" />
<glyph unicode="&#xe90d;" glyph-name="effects" d="M730.889 813.525l-130.598-130.598 78.242-78.24 130.598 130.598-78.242 78.24zM714.782 501.359l172.864 172.86c33.724 33.726 33.724 88.406 0 122.132l-95.689 95.688c-33.728 33.726-88.405 33.726-122.133 0l-644.53-644.529c-33.726-33.728-33.726-88.405 0-122.133l95.688-95.689c33.726-33.724 88.406-33.724 122.132 0l468.958 468.958c0.465 0.435 0.926 0.875 1.382 1.331 0.452 0.452 0.896 0.913 1.327 1.382zM608.742 534.897l-78.242 78.241-426.692-426.693 78.24-78.242 426.694 426.694zM234.419 917.324c27.255 0 49.349-22.095 49.349-49.349v-61.686h61.686c27.255 0 49.349-22.094 49.349-49.349s-22.094-49.349-49.349-49.349h-61.686v-61.686c0-27.255-22.095-49.349-49.349-49.349s-49.349 22.094-49.349 49.349v61.686h-61.686c-27.255 0-49.349 22.094-49.349 49.349s22.095 49.349 49.349 49.349h61.686v61.686c0 27.254 22.094 49.349 49.349 49.349zM863.616 510.195c27.255 0 49.348-22.093 49.348-49.348v-61.687h61.687c27.255 0 49.348-22.093 49.348-49.348 0-27.251-22.093-49.348-49.348-49.348h-61.687v-61.683c0-27.255-22.093-49.353-49.348-49.353s-49.348 22.097-49.348 49.353v61.683h-61.687c-27.251 0-49.348 22.097-49.348 49.348 0 27.255 22.097 49.348 49.348 49.348h61.687v61.687c0 27.255 22.093 49.348 49.348 49.348zM641.549 251.115c27.251 0 49.348-22.093 49.348-49.348v-24.674h24.674c27.255 0 49.348-22.093 49.348-49.348s-22.093-49.348-49.348-49.348h-24.674v-24.674c0-27.255-22.097-49.353-49.348-49.353-27.255 0-49.353 22.097-49.353 49.353v24.674h-24.674c-27.251 0-49.348 22.093-49.348 49.348s22.097 49.348 49.348 49.348h24.674v24.674c0 27.255 22.097 49.348 49.353 49.348z" />
<glyph unicode="&#xe90e;" glyph-name="arrow-dropdown" d="M298 512.667h428l-214-214z" />
<glyph unicode="&#xe90f;" glyph-name="font-size" d="M172.617 538.898l-172.617-415.536h98.011l37.303 101.807h165.303l38.766-101.807h99.473l-171.885 415.536h-94.354zM161.646 294.426l57.051 148.207 57.052-148.207h-114.103zM791.407 746.667h-117.030l-235.52-623.305h114.103l54.857 158.596h245.76l56.32-158.596h114.103l-232.593 623.305zM634.15 365.76l86.306 248.628c4.318 12.812 7.313 26.040 8.777 39.476 1.975-13.297 4.681-26.456 8.047-39.476l91.43-248.628h-194.56z" />
<glyph unicode="&#xe910;" glyph-name="font" d="M367.104 268.8h288.768l58.368-153.6h107.008l-261.632 665.6h-95.232l-261.632-665.6h107.008l57.344 153.6zM512 653.824l105.984-282.624h-211.968l105.984 282.624zM921.6 960h-819.2c-56.32 0-102.4-46.080-102.4-102.4v-819.2c0-56.32 46.080-102.4 102.4-102.4h819.2c56.32 0 102.4 46.080 102.4 102.4v819.2c0 56.32-46.080 102.4-102.4 102.4zM921.6 38.4h-819.2v819.2h819.2v-819.2z" />
<glyph unicode="&#xe911;" glyph-name="format-align-center" d="M938.667 753.778v-35.556c0-9.43-3.746-18.473-10.415-25.141s-15.71-10.414-25.139-10.414h-782.224c-9.43 0-18.473 3.746-25.141 10.414s-10.414 15.712-10.414 25.141v35.556c0 9.43 3.746 18.473 10.414 25.141s15.712 10.414 25.141 10.414h782.224c9.429 0 18.47-3.746 25.139-10.414s10.415-15.712 10.415-25.141zM796.446 504.887c9.429 0 18.47 3.746 25.139 10.415s10.415 15.714 10.415 25.142v35.555c0 9.43-3.746 18.473-10.415 25.142s-15.71 10.414-25.139 10.414h-568.89c-9.43 0-18.473-3.746-25.141-10.414s-10.414-15.712-10.414-25.142v-35.555c0-9.428 3.746-18.473 10.414-25.142s15.712-10.415 25.141-10.415h568.89zM903.113 433.779h-782.224c-9.43 0-18.473-3.746-25.141-10.415s-10.414-15.714-10.414-25.143v-35.554c0-9.429 3.746-18.475 10.414-25.143 6.668-6.665 15.712-10.411 25.141-10.411h782.224c9.429 0 18.47 3.746 25.139 10.411 6.669 6.669 10.415 15.714 10.415 25.143v35.554c0 9.429-3.746 18.475-10.415 25.143s-15.71 10.415-25.139 10.415zM796.446 256h-568.89c-9.43 0-18.473-3.746-25.141-10.415s-10.414-15.71-10.414-25.139v-35.558c0-9.429 3.746-18.47 10.414-25.139s15.712-10.415 25.141-10.415h568.89c9.429 0 18.47 3.746 25.139 10.415s10.415 15.71 10.415 25.139v35.558c0 9.429-3.746 18.47-10.415 25.139s-15.71 10.415-25.139 10.415z" />
<glyph unicode="&#xe912;" glyph-name="format-italic" d="M377.905 960v-219.429h161.645l-250.148-585.141h-204.069v-219.43h585.143v219.43h-161.647l250.15 585.141h204.066v219.429h-585.142z" />
<glyph unicode="&#xe913;" glyph-name="format-underline" d="M526.221 163.554c188.305 0 341.333 153.033 341.333 341.333v455.113h-142.221v-455.113c0-109.794-89.314-199.108-199.113-199.108-109.794 0-199.11 89.314-199.11 199.108v455.113h-142.223v-455.113c0-188.301 153.031-341.333 341.332-341.333zM128 49.779v-113.779h796.446v113.779h-796.446z" />
<glyph unicode="&#xe914;" glyph-name="forward" d="M0 504.887h806.114l-203.661 204.233 80.213 80.213 341.333-341.333-341.333-341.333-80.213 80.213 203.661 204.233h-806.114v113.775z" />
<glyph unicode="&#xe915;" glyph-name="grid" d="M115.484 873.219c-15.852 0-28.703-12.851-28.703-28.703v-216.281c0-15.852 12.851-28.703 28.703-28.703h216.281c15.852 0 28.703 12.851 28.703 28.703v216.281c0 15.852-12.851 28.703-28.703 28.703h-216.281zM0 844.515c0 63.78 51.704 115.485 115.484 115.485h216.281c63.78 0 115.484-51.704 115.484-115.485v-216.281c0-63.78-51.704-115.484-115.484-115.484h-216.281c-63.78 0-115.484 51.703-115.484 115.484v216.281zM692.207 873.219c-15.851 0-28.702-12.851-28.702-28.703v-216.281c0-15.852 12.851-28.703 28.702-28.703h216.282c15.851 0 28.702 12.851 28.702 28.703v216.281c0 15.852-12.847 28.703-28.702 28.703h-216.282zM576.725 844.515c0 63.78 51.703 115.485 115.482 115.485h216.282c63.782 0 115.486-51.704 115.486-115.485v-216.281c0-63.78-51.703-115.484-115.486-115.484h-216.282c-63.778 0-115.482 51.703-115.482 115.484v216.281zM115.484 296.469c-15.852 0-28.703-12.851-28.703-28.702v-216.282c0-15.855 12.851-28.706 28.703-28.706h216.281c15.852 0 28.703 12.851 28.703 28.706v216.282c0 15.851-12.851 28.702-28.703 28.702h-216.281zM0 267.767c0 63.778 51.704 115.482 115.484 115.482h216.281c63.78 0 115.484-51.703 115.484-115.482v-216.282c0-63.782-51.704-115.486-115.484-115.486h-216.281c-63.78 0-115.484 51.703-115.484 115.486v216.282zM692.207 296.469c-15.851 0-28.702-12.851-28.702-28.702v-216.282c0-15.855 12.851-28.706 28.702-28.706h216.282c15.851 0 28.702 12.851 28.702 28.706v216.282c0 15.851-12.847 28.702-28.702 28.702h-216.282zM576.725 267.767c0 63.778 51.703 115.482 115.482 115.482h216.282c63.782 0 115.486-51.703 115.486-115.482v-216.282c0-63.782-51.703-115.486-115.486-115.486h-216.282c-63.778 0-115.482 51.703-115.482 115.486v216.282z" />
<glyph unicode="&#xe916;" glyph-name="guided-tour" d="M739.209 700.166l-281.284-112.512c-19.315-7.726-36.863-19.295-51.575-34.007s-26.281-32.26-34.007-51.575l-112.512-281.28c-1.396-3.49-1.738-7.313-0.983-10.995s2.574-7.061 5.232-9.719c2.658-2.658 6.036-4.476 9.718-5.231s7.504-0.414 10.993 0.986l281.281 112.512c19.315 7.723 36.864 19.294 51.575 34.005s26.283 32.26 34.010 51.575l112.512 281.281c1.395 3.489 1.737 7.311 0.981 10.993s-2.573 7.061-5.231 9.718c-2.658 2.658-6.037 4.477-9.719 5.232s-7.505 0.413-10.991-0.983zM512 390.396c-11.392 0-22.532 3.379-32.004 9.711-9.472 6.327-16.853 15.322-21.214 25.847s-5.5 22.106-3.277 33.28c2.223 11.174 7.71 21.436 15.765 29.491s18.317 13.542 29.491 15.765c11.174 2.223 22.754 1.084 33.28-3.277s19.52-11.742 25.847-21.214c6.332-9.472 9.711-20.612 9.711-32.004 0-15.275-6.071-29.926-16.87-40.73-10.803-10.799-25.455-16.87-40.73-16.87zM1024 448c0-282.769-229.231-512-512-512s-512 229.231-512 512c0 282.77 229.23 512 512 512s512-229.23 512-512zM102.484 448c0-226.172 183.347-409.515 409.516-409.515 226.172 0 409.515 183.343 409.515 409.515 0 226.17-183.343 409.516-409.515 409.516-226.17 0-409.516-183.347-409.516-409.516z" />
<glyph unicode="&#xe917;" glyph-name="images" d="M921.6 857.6v-614.4h-614.4v614.4h614.4zM921.6 960h-614.4c-56.32 0-102.4-46.080-102.4-102.4v-614.4c0-56.32 46.080-102.4 102.4-102.4h614.4c56.32 0 102.4 46.080 102.4 102.4v614.4c0 56.32-46.080 102.4-102.4 102.4zM486.4 464.896l86.528-115.712 126.976 158.72 170.496-213.504h-512l128 170.496zM0 755.2v-716.8c0-56.32 46.080-102.4 102.4-102.4h716.8v102.4h-716.8v716.8h-102.4z" />
<glyph unicode="&#xe918;" glyph-name="info" d="M460.8 704h102.4v-102.4h-102.4v102.4zM460.8 499.2h102.4v-307.2h-102.4v307.2zM512 960c-282.624 0-512-229.376-512-512s229.376-512 512-512c282.624 0 512 229.376 512 512s-229.376 512-512 512zM512 38.4c-225.792 0-409.6 183.808-409.6 409.6s183.808 409.6 409.6 409.6c225.792 0 409.6-183.808 409.6-409.6s-183.808-409.6-409.6-409.6z" />
<glyph unicode="&#xe919;" glyph-name="layers" d="M25.829 521.694l460.584-266.116c7.778-4.493 16.606-6.857 25.587-6.857s17.809 2.364 25.587 6.857l460.582 266.116c7.757 4.497 14.195 10.953 18.667 18.723 4.476 7.769 6.831 16.577 6.831 25.542s-2.355 17.774-6.831 25.543c-4.471 7.769-10.91 14.226-18.667 18.724l-460.582 266.115c-7.778 4.492-16.606 6.856-25.587 6.856s-17.809-2.365-25.587-6.856l-460.584-266.115c-7.755-4.498-14.192-10.956-18.667-18.724s-6.83-16.577-6.83-25.543c0-8.966 2.355-17.774 6.83-25.542 4.475-7.771 10.912-14.226 18.667-18.723zM512 772.966l358.229-204.704-358.229-207.264-358.231 205.217 358.231 206.751zM946.995 374.306l-434.995-251.273-434.995 251.273c-5.81 3.405-12.236 5.628-18.907 6.545s-13.459 0.508-19.972-1.203c-6.513-1.711-12.625-4.693-17.984-8.768-5.359-4.079-9.861-9.178-13.247-14.997-3.384-5.841-5.578-12.292-6.458-18.987-0.879-6.69-0.426-13.491 1.334-20.011 1.76-6.515 4.792-12.621 8.921-17.958 4.129-5.342 9.274-9.813 15.138-13.154l460.584-266.116c7.778-4.493 16.606-6.857 25.587-6.857s17.809 2.364 25.587 6.857l460.582 266.116c5.867 3.341 11.012 7.812 15.138 13.154 4.13 5.338 7.164 11.443 8.922 17.958 1.762 6.519 2.214 13.321 1.335 20.011-0.879 6.694-3.076 13.146-6.46 18.987-3.383 5.82-7.885 10.918-13.248 14.997-5.359 4.075-11.469 7.057-17.984 8.768-6.511 1.711-13.299 2.121-19.972 1.203-6.669-0.917-13.094-3.14-18.906-6.545z" />
<glyph unicode="&#xe91a;" glyph-name="more" d="M512 704c70.4 0 128 57.6 128 128s-57.6 128-128 128c-70.4 0-128-57.6-128-128s57.6-128 128-128zM512 576c-70.4 0-128-57.6-128-128s57.6-128 128-128c70.4 0 128 57.6 128 128s-57.6 128-128 128zM512 192c-70.4 0-128-57.6-128-128s57.6-128 128-128c70.4 0 128 57.6 128 128s-57.6 128-128 128z" />
<glyph unicode="&#xe91b;" glyph-name="jpg" d="M256.219 640h543.562c53.467 0 96.219-42.963 96.219-95.961v-224.078c0-53.009-43.079-95.961-96.219-95.961h-543.562c-53.467 0-96.219 42.963-96.219 95.961v224.078c0 53.009 43.079 95.961 96.219 95.961zM255.826 608c-35.25 0-63.826-28.806-63.826-63.745v-224.511c0-35.205 28.875-63.745 63.826-63.745h544.348c35.25 0 63.826 28.806 63.826 63.745v224.511c0 35.205-28.875 63.745-63.826 63.745h-544.348zM256 416h32v-32c0-17.673 14.165-32 31.967-32h32.067c17.655 0 31.967 14.431 31.967 31.705v160.295h32v-159.811c0-35.82-28.724-64.189-64.156-64.189h-31.688c-35.551 0-64.156 28.739-64.156 64.189v31.811zM448 480v64h95.844c35.551 0 64.156-28.654 64.156-64 0-35.593-28.724-64-64.156-64h-63.844v-96h-32v160zM480 512v-64h64.033c17.655 0 31.967 14.204 31.967 32 0 17.673-14.165 32-31.967 32h-64.033zM768 416v-64h-64.006c-17.795 0-31.994 14.324-31.994 31.994v96.012c0 17.795 14.324 31.994 31.994 31.994h96.006v32h-95.844c-35.432 0-64.156-28.37-64.156-64.189v-95.621c0-35.451 28.605-64.189 64.156-64.189h95.844v128h-96v-32h64z" />
<glyph unicode="&#xe91c;" glyph-name="pdf" d="M256.219 640h543.562c53.467 0 96.219-42.963 96.219-95.961v-224.078c0-53.009-43.079-95.961-96.219-95.961h-543.562c-53.467 0-96.219 42.963-96.219 95.961v224.078c0 53.009 43.079 95.961 96.219 95.961zM255.826 608c-35.25 0-63.826-28.806-63.826-63.745v-224.511c0-35.205 28.875-63.745 63.826-63.745h544.348c35.25 0 63.826 28.806 63.826 63.745v224.511c0 35.205-28.875 63.745-63.826 63.745h-544.348zM672 448h96v-32h-96v-96h-32v224h160v-32h-128v-64zM256 480v64h95.844c35.551 0 64.156-28.654 64.156-64 0-35.593-28.724-64-64.156-64h-63.844v-96h-32v160zM288 512v-64h64.033c17.655 0 31.967 14.204 31.967 32 0 17.673-14.165 32-31.967 32h-64.033zM448 544h95.844c35.551 0 64.156-28.739 64.156-64.189v-95.621c0-35.82-28.724-64.189-64.156-64.189h-95.844v224zM480 512v-160h64.033c17.655 0 31.967 14.199 31.967 31.994v96.012c0 17.67-14.165 31.994-31.967 31.994h-64.033z" />
<glyph unicode="&#xe91d;" glyph-name="png" d="M256.219 640h543.562c53.467 0 96.219-42.963 96.219-95.961v-224.078c0-53.009-43.079-95.961-96.219-95.961h-543.562c-53.467 0-96.219 42.963-96.219 95.961v224.078c0 53.009 43.079 95.961 96.219 95.961zM255.826 608c-35.25 0-63.826-28.806-63.826-63.745v-224.511c0-35.205 28.875-63.745 63.826-63.745h544.348c35.25 0 63.826 28.806 63.826 63.745v224.511c0 35.205-28.875 63.745-63.826 63.745h-544.348zM256 480v64h95.844c35.551 0 64.156-28.654 64.156-64 0-35.593-28.724-64-64.156-64h-63.844v-96h-32v160zM288 512v-64h64.033c17.655 0 31.967 14.204 31.967 32 0 17.673-14.165 32-31.967 32h-64.033zM480 480v-160h-32v224h32l96-160v160h32v-224h-32l-96 160zM768 416v-64h-64.006c-17.795 0-31.994 14.324-31.994 31.994v96.012c0 17.795 14.324 31.994 31.994 31.994h96.006v32h-95.844c-35.432 0-64.156-28.37-64.156-64.189v-95.621c0-35.451 28.605-64.189 64.156-64.189h95.844v128h-96v-32h64z" />
<glyph unicode="&#xe91e;" glyph-name="move-down" d="M575.287 603.826v-497.309l159.834 159.39 62.775-62.775-267.127-267.132-267.132 267.132 62.776 62.775 159.833-159.39v497.309h89.041zM969.954 661.789c-3.891-6.759-9.493-12.376-16.239-16.29l-333.918-192.93-0.883 104.137 223.497 129.308-311.65 178.087-311.652-179.868 222.615-127.527v-104.137l-333.92 192.93c-6.746 3.913-12.347 9.531-16.24 16.29s-5.942 14.422-5.942 22.221c0 7.8 2.049 15.463 5.942 22.222s9.493 12.376 16.24 16.29l400.693 231.513c6.771 3.908 14.447 5.965 22.263 5.965s15.492-2.057 22.259-5.965l400.695-231.513c6.746-3.913 12.348-9.531 16.239-16.29 3.895-6.759 5.943-14.422 5.943-22.222s-2.048-15.462-5.943-22.221zM135.877 522.974c5.804-0.798 11.394-2.735 16.449-5.696l289.398-167.172v-102.784l-333.92 192.934c-5.102 2.906-9.577 6.797-13.169 11.443s-6.23 9.954-7.761 15.625c-1.531 5.67-1.926 11.584-1.161 17.408s2.674 11.435 5.618 16.516c2.946 5.065 6.862 9.498 11.524 13.047 4.663 3.546 9.979 6.14 15.646 7.629s11.571 1.843 17.376 1.050zM966.886 451.699c-3.593-4.646-8.068-8.538-13.171-11.443l-333.918-192.934v102.784l289.395 167.172c5.056 2.961 10.645 4.898 16.452 5.696 5.803 0.794 11.708 0.439 17.374-1.050s10.982-4.083 15.646-7.629c4.663-3.55 8.58-7.983 11.524-13.047 2.944-5.082 4.855-10.692 5.619-16.516s0.371-11.738-1.161-17.408c-1.532-5.67-4.169-10.978-7.761-15.625z" />
<glyph unicode="&#xe91f;" glyph-name="qrcode" d="M128 490.667h85.333v-85.333h-85.333v85.333zM469.333 746.667h85.333v-170.667h-85.333v170.667zM384 490.667h170.667v-170.667h-85.333v85.333h-85.333v85.333zM640 490.667h85.333v-85.333h85.333v85.333h85.333v-85.333h-85.333v-85.333h85.333v-170.667h-85.333v-85.333h-85.333v85.333h-170.667v-85.333h-85.333v170.667h170.667v85.333h85.333v85.333h-85.333v85.333zM810.667 149.333v170.667h-85.333v-170.667h85.333zM640 832h256v-256h-256v256zM725.333 746.667v-85.333h85.333v85.333h-85.333zM128 832h256v-256h-256v256zM213.333 746.667v-85.333h85.333v85.333h-85.333zM128 320h256v-256h-256v256zM213.333 234.667v-85.333h85.333v85.333h-85.333z" />
<glyph unicode="&#xe920;" glyph-name="move-up" d="M891.533 243.759l-370.321-213.918-370.322 213.918c-4.946 2.897-10.416 4.791-16.096 5.572s-11.458 0.431-17.003-1.024c-5.545-1.459-10.748-3.994-15.311-7.467s-8.395-7.812-11.278-12.766c-2.88-4.975-4.749-10.466-5.498-16.162-0.748-5.7-0.363-11.49 1.136-17.037s4.079-10.743 7.595-15.292c3.515-4.544 7.895-8.35 12.887-11.196l392.104-226.551c6.626-3.823 14.14-5.837 21.786-5.837s15.159 2.014 21.781 5.837l392.107 226.551c4.992 2.846 9.374 6.652 12.89 11.196 3.516 4.548 6.093 9.745 7.595 15.292 1.498 5.547 1.882 11.337 1.135 17.037-0.751 5.696-2.62 11.187-5.5 16.162-2.88 4.954-6.711 9.293-11.277 12.766-4.561 3.473-9.766 6.007-15.309 7.467-5.547 1.455-11.324 1.805-17.003 1.024s-11.153-2.675-16.098-5.572zM107.322 369.233l392.104-226.551c6.626-3.823 14.14-5.837 21.786-5.837s15.159 2.014 21.781 5.837l392.107 226.551c6.605 3.827 12.083 9.327 15.893 15.94s5.815 14.11 5.815 21.743c0 7.633-2.005 15.134-5.815 21.747s-9.289 12.109-15.893 15.94l-326.763 188.796v-100.039l217.847-124.482-304.973-176.448-304.972 174.703 217.846 125.73v100.535l-326.764-188.796c-6.602-3.831-12.082-9.327-15.892-15.94s-5.815-14.114-5.815-21.747c0-7.633 2.005-15.13 5.815-21.743s9.29-12.113 15.892-15.94zM564.787 306.492v486.645l156.407-155.971 61.427 61.43-261.402 261.404-261.405-261.404 61.43-61.43 156.408 155.971v-486.645h87.134z" />
<glyph unicode="&#xe921;" glyph-name="name-number" d="M244.219 960v-226.572h-40.342l-96.11 142.604h-1.618v-142.604h-46.706v226.572h40.989l95.354-142.493h1.942v142.493h46.49zM328.479 733.428h-50.050l76.262 226.572h60.19l76.153-226.572h-50.048l-55.337 174.797h-1.726l-55.444-174.797zM325.351 822.486h118.224v-37.393h-118.224v37.393zM525.218 960h57.6l60.838-152.228h2.59l60.834 152.228h57.604v-226.572h-45.308v147.471h-1.83l-57.173-146.365h-30.848l-57.169 146.918h-1.835v-148.024h-45.303v226.572zM848.725 733.428v226.572h148.86v-39.495h-102.153v-53.988h94.494v-39.495h-94.494v-54.099h102.583v-39.495h-149.291zM371.445 634.303v-679.717h-179.922v509.79h-3.884l-144.973-88.951v156.655l163.095 102.224h165.684zM720.235-64c-60.19 0.222-112.183 14.494-155.977 42.816-43.793 28.318-77.555 69.141-101.286 122.466s-35.49 117.269-35.273 191.834c0.213 74.786 12.079 138.291 35.597 190.507 23.727 52.218 57.382 91.935 100.962 119.15 43.793 27.215 95.787 40.823 155.977 40.823s112.179-13.718 155.977-41.155c43.793-27.215 77.555-66.932 101.286-119.151 23.731-52.215 35.486-115.61 35.273-190.174 0-75.008-11.866-139.174-35.597-192.495-23.731-53.325-57.493-94.148-101.286-122.47-43.58-28.1-95.462-42.15-155.652-42.15zM720.235 86.016c31.066 0 56.521 16.593 76.369 49.783 20.062 33.412 29.986 85.85 29.773 157.316 0 46.686-4.531 84.855-13.594 114.505s-21.572 51.554-37.538 65.715c-15.962 14.383-34.3 21.572-55.010 21.572-31.066 0-56.414-16.154-76.049-48.457-19.631-32.303-29.662-83.418-30.093-153.335-0.218-47.569 4.207-86.733 13.265-117.491 9.062-30.532 21.577-53.099 37.538-67.703 16.183-14.605 34.628-21.905 55.339-21.905z" />
<glyph unicode="&#xe922;" glyph-name="corner-resize" d="M420.706 896l-136.126-110.529 171.502-166.373-113.24-113.596-166.021 172.223-112.821-139.553v357.827h356.706zM682.562 391.906l165.931-172.132 111.507 138.053v-357.827h-356.706l137.621 111.858-171.593 166.452 113.24 113.596z" />
<glyph unicode="&#xe923;" glyph-name="ai" horiz-adv-x="896" d="M430.745 960.005c99.613 0.228 195.934-35.654 271.097-100.987 3.269-2.835 6.548-5.798 9.89-8.924l5.069-4.816c7.892-7.298 15.43-14.819 22.752-22.714 31.726-34.869 55.306-76.304 69.046-121.149l2.751-9.489c7.422-26.127 11.596-53.056 12.437-80.179l0.159-10.179 0.022-106.927c-0.148-8.604 1.087-17.176 3.523-24.973 18.078-53.852 39.396-106.56 63.929-158.030 8.090-17.418 5.294-37.952-7.472-52.932-8.957-10.052-21.52-16.061-34.459-16.801l-3.89-0.063-15.307 0.013 0.129-13.098c0.113-18.578-5.975-36.612-17.318-51.391l-3.223-3.948c-2.176-2.463-3.617-5.468-4.178-8.265l-0.254-2.047-0.027-72.887c-0.561-15.928-6.369-31.232-16.517-43.522l-3.174-3.594c-12.192-12.919-28.67-20.864-46.715-22.423l-4.542-0.256h-130.333c-13.396 0-24.414-10.181-25.739-23.227l-0.134-2.645v-58.553h-42.667v58.553c0 36.548 28.606 66.414 64.65 68.431l3.889 0.108 129.76-0.008c7.895 0.212 15.38 3.561 20.8 9.304 4.743 5.026 7.563 11.523 8.030 18.358l0.045 3.608 0.022 69.571c0.528 13.948 5.866 27.283 14.981 37.599 5.68 6.547 9.105 14.706 9.832 23.222l0.145 3.668-0.144 14.351c-0.073 16.669 9.478 31.761 24.304 38.914l3.256 1.409 3.698 1.423 27.254-0.006c2.273-0.056 4.456 0.891 5.656 2.229 1.642 1.928 2.011 4.636 1.035 6.741-25.183 52.83-47.147 107.136-65.907 163.034-3.28 10.477-5.139 21.336-5.539 32.073l-0.064 6.423-0.025 106.556c-0.005 23.29-2.833 46.48-8.412 69.065l-2.746 10.302c-11.523 42.010-32.81 80.703-61.989 112.774-4.292 4.628-8.73 9.17-13.406 13.716l-7.205 6.831c-2.474 2.382-4.81 4.586-7.066 6.662l-6.586 5.891c-67.392 58.578-153.733 90.742-243.128 90.534-92.624 0.231-182.415-31.918-253.486-90.584-125.885-108.636-158.941-290.368-79.152-436.793 48.806-94.499 85.233-244.238 95.992-397.738l0.882-13.553v-42.667h-42.667l0.039 41.381c-9.137 151.381-44.905 301.51-91.934 392.578-89.179 163.646-52.13 367.332 89.319 489.394 79.101 65.302 178.538 100.904 281.009 100.653zM584.889 725.333c11.782 0 21.333-9.551 21.333-21.333 0-10.94-8.236-19.957-18.845-21.19l-2.488-0.144h-74.667c-11.782 0-21.333 9.551-21.333 21.333 0 10.94 8.236 19.957 18.845 21.19l2.488 0.144h74.667zM584.889 426.667c11.782 0 21.333-9.551 21.333-21.333 0-10.94-8.236-19.957-18.845-21.19l-2.488-0.144h-74.667c-11.782 0-21.333 9.551-21.333 21.333 0 10.94 8.236 19.957 18.845 21.19l2.488 0.144h74.667zM547.556 725.333c10.94 0 19.957-8.236 21.19-18.845l0.144-2.488v-298.667c0-11.782-9.551-21.333-21.333-21.333-10.94 0-19.957 8.236-21.19 18.845l-0.144 2.488v298.667c0 11.782 9.551 21.333 21.333 21.333zM339.285 725.333c8.617 0 16.295-5.169 19.616-12.945l0.862-2.408 87.211-298.667c3.302-11.31-3.189-23.155-14.499-26.458-10.502-3.067-21.466 2.311-25.623 12.151l-0.835 2.348-73.943 253.212-73.53-253.183c-3.052-10.506-13.476-16.868-24.009-15.091l-2.429 0.556c-10.506 3.052-16.868 13.476-15.091 24.009l0.556 2.429 86.763 298.667c2.407 8.285 9.526 14.219 17.93 15.229l2.556 0.153h14.464zM389.887 530.493c11.782 0 21.333-9.551 21.333-21.333 0-10.94-8.236-19.957-18.845-21.19l-2.488-0.144h-115.671c-11.782 0-21.333 9.551-21.333 21.333 0 10.94 8.236 19.957 18.845 21.19l2.488 0.144h115.671z" />
<glyph unicode="&#xe924;" glyph-name="share-twitter" horiz-adv-x="951" d="M925.714 726.857q-38.286-56-92.571-95.429 0.571-8 0.571-24 0-74.286-21.714-148.286t-66-142-105.429-120.286-147.429-83.429-184.571-31.143q-154.857 0-283.429 82.857 20-2.286 44.571-2.286 128.571 0 229.143 78.857-60 1.143-107.429 36.857t-65.143 91.143q18.857-2.857 34.857-2.857 24.571 0 48.571 6.286-64 13.143-106 63.714t-42 117.429v2.286q38.857-21.714 83.429-23.429-37.714 25.143-60 65.714t-22.286 88q0 50.286 25.143 93.143 69.143-85.143 168.286-136.286t212.286-56.857q-4.571 21.714-4.571 42.286 0 76.571 54 130.571t130.571 54q80 0 134.857-58.286 62.286 12 117.143 44.571-21.143-65.714-81.143-101.714 53.143 5.714 106.286 28.571z" />
<glyph unicode="&#xe925;" glyph-name="share-facebook" horiz-adv-x="602" d="M548 953.143v-150.857h-89.714q-49.143 0-66.286-20.571t-17.143-61.714v-108h167.429l-22.286-169.143h-145.143v-433.714h-174.857v433.714h-145.714v169.143h145.714v124.571q0 106.286 59.429 164.857t158.286 58.571q84 0 130.286-6.857z" />
<glyph unicode="&#xe926;" glyph-name="position" d="M1023.987 960h-299.908l98.761-98.763-157.235-157.224 102.383-102.397 157.252 157.238 98.761-98.763-0.013 299.908zM299.921 960h-299.907v-299.908l98.762 98.763 157.223-157.238 102.397 102.383-157.238 157.253 98.762 98.748zM1023.987 235.934l-98.765-98.761-157.222 157.235-102.396-102.383 157.235-157.252-98.761-98.761h299.908v299.921zM640.521 576.535c-70.554 70.553-186.487 70.553-257.042 0-70.553-70.555-70.553-186.489 0-257.042 68.165-68.151 178.292-69.803 249.324-6.272 2.773 1.83 5.359 3.934 7.718 6.272 2.398 2.411 4.548 5.060 6.417 7.906 63.369 71.031 61.687 181.030-6.417 249.136zM568.841 504.853c31.812-31.817 31.812-81.865 0-113.681-31.817-31.812-81.865-31.812-113.681 0-31.814 31.817-31.814 81.865 0 113.681 31.817 31.814 81.865 31.814 113.681 0zM256 294.409l-157.238-157.235-98.762 98.761v-299.908h299.921l-98.762 98.761 157.238 157.227-102.397 102.396z" />
<glyph unicode="&#xe927;" glyph-name="share-pinterest" horiz-adv-x="878" d="M877.714 448q0-119.429-58.857-220.286t-159.714-159.714-220.286-58.857q-63.429 0-124.571 18.286 33.714 53.143 44.571 93.714 5.143 19.429 30.857 120.571 11.429-22.286 41.714-38.571t65.143-16.286q69.143 0 123.429 39.143t84 107.714 29.714 154.286q0 65.143-34 122.286t-98.571 93.143-145.714 36q-60 0-112-16.571t-88.286-44-62.286-63.143-38.286-74-12.286-76.571q0-59.429 22.857-104.571t66.857-63.429q17.143-6.857 21.714 11.429 1.143 4 4.571 17.714t4.571 17.143q3.429 13.143-6.286 24.571-29.143 34.857-29.143 86.286 0 86.286 59.714 148.286t156.286 62q86.286 0 134.571-46.857t48.286-121.714q0-97.143-39.143-165.143t-100.286-68q-34.857 0-56 24.857t-13.143 59.714q4.571 20 15.143 53.429t17.143 58.857 6.571 43.143q0 28.571-15.429 47.429t-44 18.857q-35.429 0-60-32.571t-24.571-81.143q0-41.714 14.286-69.714l-56.571-238.857q-9.714-40-7.429-101.143-117.714 52-190.286 160.571t-72.571 241.714q0 119.429 58.857 220.286t159.714 159.714 220.286 58.857 220.286-58.857 159.714-159.714 58.857-220.286z" />
<glyph unicode="&#xe928;" glyph-name="share-google-plus" horiz-adv-x="1317" d="M821.143 438.286q0-118.857-49.714-211.714t-141.714-145.143-210.857-52.286q-85.143 0-162.857 33.143t-133.714 89.143-89.143 133.714-33.143 162.857 33.143 162.857 89.143 133.714 133.714 89.143 162.857 33.143q163.429 0 280.571-109.714l-113.714-109.143q-66.857 64.571-166.857 64.571-70.286 0-130-35.429t-94.571-96.286-34.857-132.857 34.857-132.857 94.571-96.286 130-35.429q47.429 0 87.143 13.143t65.429 32.857 44.857 44.857 28 47.429 12.286 42.286h-237.714v144h395.429q6.857-36 6.857-69.714zM1316.571 508v-120h-119.429v-119.429h-120v119.429h-119.429v120h119.429v119.429h120v-119.429h119.429z" />
<glyph unicode="&#xe929;" glyph-name="share-linkedin" horiz-adv-x="878" d="M199.429 602.857v-566.286h-188.571v566.286h188.571zM211.429 777.714q0.571-41.714-28.857-69.714t-77.429-28h-1.143q-46.857 0-75.429 28t-28.571 69.714q0 42.286 29.429 70t76.857 27.714 76-27.714 29.143-70zM877.714 361.143v-324.571h-188v302.857q0 60-23.143 94t-72.286 34q-36 0-60.286-19.714t-36.286-48.857q-6.286-17.143-6.286-46.286v-316h-188q1.143 228 1.143 369.714t-0.571 169.143l-0.571 27.429h188v-82.286h-1.143q11.429 18.286 23.429 32t32.286 29.714 49.714 24.857 65.429 8.857q97.714 0 157.143-64.857t59.429-190z" />
<glyph unicode="&#xe92a;" glyph-name="share-mail" d="M1024 554.286v-453.714q0-37.714-26.857-64.571t-64.571-26.857h-841.143q-37.714 0-64.571 26.857t-26.857 64.571v453.714q25.143-28 57.714-49.714 206.857-140.571 284-197.143 32.571-24 52.857-37.429t54-27.429 62.857-14h1.143q29.143 0 62.857 14t54 27.429 52.857 37.429q97.143 70.286 284.571 197.143 32.571 22.286 57.143 49.714zM1024 722.286q0-45.143-28-86.286t-69.714-70.286q-214.857-149.143-267.429-185.714-5.714-4-24.286-17.429t-30.857-21.714-29.714-18.571-32.857-15.429-28.571-5.143h-1.143q-13.143 0-28.571 5.143t-32.857 15.429-29.714 18.571-30.857 21.714-24.286 17.429q-52 36.571-149.714 104.286t-117.143 81.429q-35.429 24-66.857 66t-31.429 78q0 44.571 23.714 74.286t67.714 29.714h841.143q37.143 0 64.286-26.857t27.143-64.571z" />
<glyph unicode="&#xe92b;" glyph-name="share" horiz-adv-x="878" d="M694.857 374.857q76 0 129.429-53.429t53.429-129.429-53.429-129.429-129.429-53.429-129.429 53.429-53.429 129.429q0 6.857 1.143 19.429l-205.714 102.857q-52.571-49.143-124.571-49.143-76 0-129.429 53.429t-53.429 129.429 53.429 129.429 129.429 53.429q72 0 124.571-49.143l205.714 102.857q-1.143 12.571-1.143 19.429 0 76 53.429 129.429t129.429 53.429 129.429-53.429 53.429-129.429-53.429-129.429-129.429-53.429q-72 0-124.571 49.143l-205.714-102.857q1.143-12.571 1.143-19.429t-1.143-19.429l205.714-102.857q52.571 49.143 124.571 49.143z" />
<glyph unicode="&#xe92c;" glyph-name="preview-lightbox" d="M910.221 960h-796.443c-63.147 0-113.778-51.2-113.778-113.778v-796.443c0-62.579 50.631-113.779 113.778-113.779h796.443c62.579 0 113.779 51.2 113.779 113.779v796.443c0 62.578-50.633 113.778-113.779 113.778zM910.221 49.779h-796.443v682.665h796.443v-682.665zM512 533.333c104.674 0 197.973-54.613 246.899-142.221-48.926-87.612-142.225-142.225-246.899-142.225-104.675 0-197.973 54.613-246.898 142.225 48.925 87.607 142.223 142.221 246.898 142.221zM512 618.667c-155.307 0-287.858-94.434-341.333-227.554 53.475-133.12 186.027-227.558 341.333-227.558s287.859 94.438 341.333 227.558c-53.474 133.12-186.027 227.554-341.333 227.554zM512 305.779c-47.219 0-85.333 38.114-85.333 85.333 0 47.215 38.114 85.333 85.333 85.333s85.333-38.118 85.333-85.333c0-47.219-38.114-85.333-85.333-85.333z" />
<glyph unicode="&#xe92d;" glyph-name="remove-bg" horiz-adv-x="1749" d="M947.307 616.492l0.183-198.833-0.094-172.821-0.137-308.745-17.391 0.137-261.197 329.591 247.501 312.129 31.134 38.542zM947.49 417.66l-0.23-481.566-17.391 0.137-261.197 329.591 247.501 312.129 31.134 38.542 0.183-198.833zM887.087 87.206l0.068 157.658 0.068 199.62-141.679-178.671 141.542-178.607zM564.902 393.515l73.766-94.221 27.435-34.334 111.838-140.181 149.359-188.548-925.645 0.96c-1.795 0-2.13 0.7-1.004 2.103l31.908 40.324 296.162 371.789c30.706 38.528 61.472 77.056 92.3 115.58 9.008 11.247 22.461 17.54 40.351 18.884 18.901 1.399 35.076-6.34 48.525-23.228 18.411-23.104 36.749-46.144 55.006-69.129zM1109.803 734.993c3.191-3.353 9.050-10.47 17.57-21.351l610.953-773.712c0.265-0.333 0.431-0.738 0.478-1.165s-0.026-0.858-0.213-1.242c-0.183-0.388-0.474-0.713-0.836-0.943s-0.781-0.35-1.207-0.354l-793.54-0.226-0.367 605.828c-0.124 28.255-0.213 56.509-0.273 84.764 0 2.865 2.372 6.767 7.121 11.704l61.214 77.175c3.742 4.054 6.144 7.482 7.211 10.287 19.661 24.567 43.622 32.232 71.893 22.997 8.311-3.901 14.976-8.489 19.998-13.762zM1079.945 676.501c-0.013 0.020-0.030 0.040-0.047 0.060-4.070 5.196-7.322 9.262-9.818 12.296-0.836 1.015-1.549 1.867-2.146 2.572-0.060-0.059-0.128-0.121-0.192-0.185-3.742-6.126-7.812-11.1-11.072-14.756l-54.020-68.104c0.055-22.098 0.132-44.197 0.23-66.295v-0.259l0.307-545.57 613.722 0.175-536.964 680.068zM1452.557 669.324c-63.633 0-115.217 51.584-115.217 115.217s51.584 115.218 115.217 115.218c63.633 0 115.217-51.585 115.217-115.218s-51.584-115.217-115.217-115.217zM1452.557 609.083c96.905 0 175.458 78.556 175.458 175.459s-78.554 175.459-175.458 175.459c-96.9 0-175.458-78.555-175.458-175.459s78.558-175.459 175.458-175.459z" />
<glyph unicode="&#xe92e;" glyph-name="pages" d="M266.667 874.667c0 17.673 14.327 32 32 32h405.333c8.486 0 16.627-3.372 22.626-9.373l192-192c6.003-6.001 9.374-14.141 9.374-22.627v-533.333c0-17.673-14.327-32-32-32s-32 14.327-32 32v520.079l-173.257 173.255h-392.077c-17.673 0-32 14.327-32 32zM192 714.667c-17.673 0-32-14.327-32-32v-597.333c0-17.673 14.327-32 32-32h512c17.673 0 32 14.327 32 32v498.747l-130.59 130.586h-413.41zM603.546 716.532l-0.013 0.012c0.004-0.004 0.009-0.008 0.013-0.012zM96 682.667c0 53.019 42.981 96 96 96h416.064c15.275 0 29.926-6.069 40.73-16.874l134.34-134.337c10.799-10.803 16.866-25.452 16.866-40.727v-501.396c0-53.018-42.982-96-96-96h-512c-53.020 0-96 42.982-96 96v597.333zM597.333 601.6v129.982c0 8.331 6.754 15.085 15.087 15.085 3.998 0 7.834-1.589 10.667-4.418l140.493-140.497c2.833-2.829 4.42-6.666 4.42-10.667 0-8.331-6.754-15.085-15.087-15.085h-129.98c-14.14 0-25.6 11.462-25.6 25.6zM629.333 690.746v-82.746h82.743l-82.743 82.746zM565.333 731.582c0 26.008 21.086 47.085 47.087 47.085 12.493 0 24.457-4.967 33.276-13.774l140.493-140.497c0.009-0.006-0.004 0.006 0 0 8.849-8.842 13.811-20.841 13.811-33.311 0-26.008-21.086-47.085-47.087-47.085h-129.98c-31.812 0-57.6 25.789-57.6 57.6v129.982z" />
<glyph unicode="&#xe92f;" glyph-name="eye-hide" d="M72.837 947.503l938.666-938.667c16.661-16.661 16.661-43.678 0-60.339s-43.678-16.661-60.339 0l-190.614 190.564c-73.799-47.488-159.61-73.616-247.854-75.061h-0.695c-166.379 0-294.209 94.993-377.794 184.149-42.182 44.996-74.385 89.826-96.048 123.366-10.858 16.815-19.138 30.899-24.762 40.9-2.814 5.001-4.968 8.99-6.452 11.793-0.742 1.404-1.317 2.509-1.724 3.302l-0.484 0.947-0.147 0.29c-0.054 0.109-0.063 0.128 5.591 2.975l1.81 0.959-7.485-3.763c-6.2 12.399-5.989 27.038 0.566 39.253 48.274 89.963 112.667 170.122 189.833 236.55l-182.407 182.441c-16.662 16.663-16.662 43.678 0 60.34s43.677 16.662 60.34 0zM91.416 447.863c4.654-8.038 10.81-18.257 18.425-30.050 19.67-30.455 48.8-70.959 86.619-111.3 76.348-81.438 183.065-157.047 315.19-157.18 65.917 1.136 130.168 19.083 186.803 51.778l-99.035 99.069c-6.762-4.237-13.829-8.004-21.152-11.267-20.932-9.327-43.533-14.345-66.449-14.746-22.916-0.405-45.675 3.81-66.927 12.395-21.251 8.58-40.556 21.359-56.762 37.564s-28.982 35.511-37.566 56.764c-8.584 21.248-12.799 44.011-12.395 66.927s5.42 45.517 14.748 66.449c3.263 7.323 7.029 14.39 11.266 21.152l-108.754 108.773c-65.56-55.466-121.060-121.882-164.011-196.328zM423.487 446.31c-0.202-11.456 1.905-22.839 6.196-33.463s10.679-20.279 18.786-28.382c8.102-8.102 17.754-14.49 28.378-18.782 10.628-4.292 22.007-6.4 33.463-6.195 8.674 0.152 17.255 1.626 25.454 4.356l-107.921 107.919c-2.73-8.198-4.203-16.779-4.356-25.452zM1009.636 464.804l9.859 2.276c6.191-12.378 5.99-26.991-0.533-39.194-27.298-51.072-59.857-99.153-97.139-143.467-15.172-18.031-42.091-20.348-60.117-5.175-18.031 15.172-20.348 42.086-5.18 60.117 28.548 33.924 54.007 70.315 76.083 108.732 0.044-0.077 0.484-0.057 1.32 0.060l0.515 0.102 0.573 0.028c12.184 1.488 53.595 11.35 73.517 16.233l-8.162-1.844c-35.874-8.235-57.505-12.992-64.892-14.272l-1.035-0.145-1.835-0.162c-4.659 8.043-10.82 18.278-18.449 30.089-19.669 30.46-48.802 70.962-86.618 111.302-76.416 81.51-183.253 157.181-315.541 157.181-26.957 0.064-53.726-2.996-79.876-9.117-22.944-5.37-45.897 8.876-51.267 31.82s8.876 45.897 31.82 51.268c27.143 6.353 54.826 10.060 82.66 11.077l16.707 0.329 15.94-0.337c158.621-5.847 280.93-97.586 361.809-183.859 42.185-44.994 74.385-89.824 96.051-123.367 10.854-16.811 19.136-30.899 24.759-40.896 2.816-5.005 4.971-8.99 6.451-11.797 0.742-1.399 1.318-2.509 1.728-3.298l0.482-0.951 0.149-0.29c0.010-0.020-2.38-0.63-6.377-1.62l-4.482-1.072 1.081 0.25z" />
<glyph unicode="&#xe930;" glyph-name="eye" horiz-adv-x="1365" d="M682.667 960c192.273 0 360.601-92.871 503.725-245.536 49.171-52.449 91.873-108.452 128.064-164.489l13.56-21.47 11.518-19.113 9.466-16.524 7.403-13.704c1.061-2.036 2.037-3.945 2.925-5.722 8.008-16.016 8.008-34.867 0-50.883l-6.368-12.207-8.436-15.143-16.508-27.713-13.56-21.47c-36.191-56.037-78.893-112.040-128.064-164.489-143.124-152.665-311.452-245.536-503.725-245.536s-360.601 92.871-503.725 245.536c-49.171 52.449-91.873 108.452-128.064 164.489l-13.56 21.47-11.518 19.113-9.466 16.524-7.403 13.704c-1.061 2.036-2.037 3.945-2.925 5.722-8.008 16.016-8.008 34.867 0 50.883l6.368 12.207 8.436 15.143 16.508 27.713 13.56 21.47c36.191 56.037 78.893 112.040 128.064 164.489 143.124 152.665 311.452 245.536 503.725 245.536zM682.667 846.222c-156.171 0-297.177-77.796-420.72-209.575-44.162-47.106-82.793-97.77-115.491-148.399-5.704-8.832-11.012-17.334-15.918-25.45l-8.739-14.798 8.739-14.798 7.66-12.456 8.258-12.993c32.698-50.629 71.329-101.293 115.491-148.399 123.543-131.779 264.548-209.575 420.72-209.575s297.177 77.796 420.72 209.575c44.162 47.106 82.793 97.77 115.491 148.399 5.704 8.832 11.012 17.334 15.918 25.45l8.682 14.798-8.682 14.798-7.66 12.456-8.258 12.993c-32.698 50.629-71.329 101.293-115.491 148.399-123.543 131.779-264.548 209.575-420.72 209.575zM682.667 675.556c125.678 0 227.556-101.877 227.556-227.556s-101.877-227.556-227.556-227.556c-125.678 0-227.556 101.877-227.556 227.556s101.877 227.556 227.556 227.556zM682.667 561.778c-62.84 0-113.778-50.937-113.778-113.778s50.937-113.778 113.778-113.778c62.84 0 113.778 50.937 113.778 113.778s-50.937 113.778-113.778 113.778z" />
<glyph unicode="&#xe931;" glyph-name="print" d="M819.2 661.333h51.2c84.992 0 153.6-68.608 153.6-153.6v-307.2h-204.8v-204.8h-614.4v204.8h-204.8v307.2c0 84.992 68.608 153.6 153.6 153.6h51.2v256h614.4v-256zM716.8 814.933h-409.6v-153.6h409.6v153.6zM716.8 98.133v204.8h-409.6v-204.8h409.6zM819.2 405.333v-102.4h102.4v204.8c0 28.16-23.040 51.2-51.2 51.2h-716.8c-28.16 0-51.2-23.040-51.2-51.2v-204.8h102.4v102.4h614.4zM870.4 482.133c0-28.275-22.925-51.2-51.2-51.2s-51.2 22.925-51.2 51.2c0 28.275 22.925 51.2 51.2 51.2s51.2-22.925 51.2-51.2z" />
<glyph unicode="&#xe932;" glyph-name="brush" d="M884 740.667c16-16 16-44 0-60l-382-382-118 118 382 382c16 16 44 16 60 0zM298 340.667c70 0 128-58 128-128 0-94-76-170-170-170-64 0-130 34-170 86 36 0 84 28 84 84 0 70 58 128 128 128z" />
<glyph unicode="&#xe933;" glyph-name="redo" d="M760.277 827.258c-21.47 18.403-23.957 50.725-5.555 72.195 18.406 21.469 50.726 23.956 72.196 5.553l179.2-153.6c10.829-9.281 17.297-22.659 17.843-36.909s-4.873-28.084-14.959-38.169l-179.2-179.201c-19.994-19.994-52.412-19.994-72.41 0-19.994 19.994-19.994 52.413 0 72.408l91.797 91.797h-465.041c-148.708 0-275.749-122.156-281.539-270.799-6.133-157.001 124.335-292.403 281.539-292.403h486.302v-102.4h-486.302c-215.175 0-392.266 183.569-383.862 398.793 7.931 203.614 180.157 369.21 383.862 369.21h450.245l-74.116 63.526z" />
<glyph unicode="&#xe934;" glyph-name="crop" d="M298 212.667h684v-84h-172v-172h-84v172h-428c-46 0-84 38-84 84v428h-172v84h172v172h84v-684zM726 298.667v342h-342v84h342c46 0 84-38 84-84v-342h-84z" />
<glyph unicode="&#xe935;" glyph-name="text-format" d="M490.756 688.559c-8.32 0-16.299-3.499-22.182-9.725-5.879-6.227-9.186-14.673-9.186-23.479s3.307-17.252 9.186-23.479c5.884-6.227 13.862-9.725 22.182-9.725h501.875c8.32 0 16.299 3.498 22.182 9.725 5.879 6.227 9.186 14.673 9.186 23.479s-3.307 17.252-9.186 23.479c-5.884 6.227-13.862 9.725-22.182 9.725h-501.875zM490.756 555.741c-8.32 0-16.299-3.499-22.182-9.725-5.879-6.227-9.186-14.674-9.186-23.481s3.307-17.25 9.186-23.479c5.884-6.225 13.862-9.724 22.182-9.724h250.94c8.316 0 16.294 3.499 22.178 9.724 5.884 6.229 9.186 14.673 9.186 23.479s-3.302 17.254-9.186 23.481c-5.884 6.227-13.862 9.725-22.178 9.725h-250.94zM459.388 389.717c0 8.806 3.307 17.25 9.186 23.479 5.884 6.225 13.862 9.724 22.182 9.724h501.875c8.32 0 16.299-3.499 22.182-9.724 5.879-6.229 9.186-14.673 9.186-23.479s-3.307-17.25-9.186-23.479c-5.884-6.225-13.862-9.724-22.182-9.724h-501.875c-8.32 0-16.299 3.499-22.182 9.724-5.879 6.229-9.186 14.673-9.186 23.479zM490.756 290.103c-8.32 0-16.299-3.499-22.182-9.724-5.879-6.229-9.186-14.673-9.186-23.479s3.307-17.254 9.186-23.479c5.884-6.229 13.862-9.728 22.182-9.728h250.94c8.316 0 16.294 3.499 22.178 9.728 5.884 6.225 9.186 14.673 9.186 23.479s-3.302 17.25-9.186 23.479c-5.884 6.225-13.862 9.724-22.178 9.724h-250.94zM376.845 580.644c0 93.803-64.339 166.023-147.061 166.023h-229.784v-581.082h258.828c76.84 0 136.4 70.562 136.4 157.308 0 63.087-31.618 117.047-79.046 141.952 35.663 27.806 60.663 73.463 60.663 115.799zM110.296 642.902h110.296c30.516 0 55.148-27.809 55.148-62.258s-24.633-62.257-55.148-62.257h-110.296v124.515zM238.975 269.35h-128.679v124.518h128.679c30.515 0 55.148-27.81 55.148-62.259s-24.633-62.259-55.148-62.259z" />
<glyph unicode="&#xe936;" glyph-name="none" d="M512 84.667c188 0 342 154 342 342 0 76-28 150-74 210l-478-478c60-46 134-74 210-74zM170 426.667c0-76 28-150 74-210l478 478c-60 46-134 74-210 74-188 0-342-154-342-342zM512 852.667c234 0 426-192 426-426s-192-426-426-426-426 192-426 426 192 426 426 426z" />
<glyph unicode="&#xe937;" glyph-name="lowercase" horiz-adv-x="922" d="M678.707 484.045c-41.506-17.476-83.558-28.945-126.157-34.406s-85.197-9.83-127.795-13.107c-75.367-5.461-134.076-22.391-176.128-50.79s-63.078-71.543-63.078-129.434c0-26.215 5.188-48.879 15.565-67.994s24.030-34.952 40.96-47.514c16.93-12.561 36.591-21.845 58.982-27.853s45.056-9.011 67.994-9.011c39.322 0 77.551 4.915 114.688 14.746s70.178 24.849 99.123 45.056c28.945 20.207 52.156 45.875 69.632 77.005s26.214 67.993 26.214 110.592v132.71zM513.229 533.197c18.569 2.185 40.687 5.461 66.355 9.83s46.694 10.376 63.078 18.022c16.384 7.646 26.487 20.48 30.31 38.502s5.734 34.679 5.734 49.971c0 50.245-16.111 91.477-48.333 123.699s-86.562 48.333-163.021 48.333c-33.86 0-64.99-3.004-93.389-9.011s-53.248-16.384-74.547-31.13c-21.299-14.746-38.775-34.406-52.429-58.982s-22.665-55.432-27.034-92.57h-99.942c3.277 50.245 14.746 93.116 34.406 128.614s45.056 64.444 76.186 86.835c31.13 22.392 67.174 38.775 108.134 49.152s84.377 15.565 130.253 15.565c42.599 0 82.739-4.642 120.422-13.926s70.451-24.030 98.304-44.237c27.853-20.207 49.698-47.24 65.536-81.101s23.757-75.366 23.757-124.518v-462.029c0-38.23 6.827-62.532 20.48-72.909s41.233-7.919 82.739 7.373v-77.005c-7.646-2.185-18.842-5.461-33.587-9.83s-29.218-6.554-43.418-6.554c-15.292 0-30.037 1.638-44.237 4.915-16.384 2.185-29.491 7.373-39.322 15.565s-17.749 18.022-23.757 29.491c-6.007 11.469-10.103 24.030-12.288 37.683s-3.277 28.126-3.277 43.418c-41.506-45.875-89.019-80.828-142.541-104.858s-111.411-36.045-173.67-36.045c-37.137 0-72.909 4.915-107.315 14.746s-64.717 25.122-90.931 45.875c-26.215 20.753-46.967 46.148-62.259 76.186s-22.938 65.809-22.938 107.315c0 144.18 98.849 229.376 296.55 255.59l135.987 18.022z" />
<glyph unicode="&#xe938;" glyph-name="uppercase" horiz-adv-x="939" d="M34.475-64l386.389 983.040h105.131l376.832-983.040h-95.573l-113.323 308.565h-447.829l-116.053-308.565h-95.573zM277.504 323.755h385.024l-192.512 516.096-192.512-516.096z" />
<glyph unicode="&#xe939;" glyph-name="text-input" d="M0 205.227h917.333v-98.56h-917.333v98.56zM0 402.351h380.158v-98.56h-380.158v98.56zM0 599.475h354.814v-98.56h-354.814v98.56zM399.551 295.791l117.855-14.519 391.65 295.121-102.921 129.107-391.649-295.123-14.936-114.586zM474.039 377.271l320.823 241.754 25.25-31.674-320.823-241.756-28.915 3.563 3.665 28.113zM953.139 777.421c-10.701 13.427-30.502 15.867-44.314 5.46l-64.802-48.831 102.921-129.107 64.802 48.831c13.811 10.406 16.32 29.657 5.619 43.084l-64.226 80.563z" />
<glyph unicode="&#xe93a;" glyph-name="text-transform" horiz-adv-x="1536" d="M35.021 38.4l347.75 884.736h94.618l339.149-884.736h-86.016l-101.99 277.709h-403.046l-104.448-277.709h-86.016zM253.747 387.379h346.522l-173.261 464.486-173.261-464.486zM1341.235 372.634c-31.13-13.107-62.669-21.709-94.618-25.805s-63.897-7.373-95.846-9.83c-56.525-4.096-100.557-16.793-132.096-38.093s-47.309-53.657-47.309-97.075c0-19.661 3.891-36.659 11.674-50.995s18.022-26.214 30.72-35.635c12.698-9.421 27.443-16.384 44.237-20.89s33.792-6.758 50.995-6.758c29.491 0 58.163 3.686 86.016 11.059s52.633 18.637 74.342 33.792c21.709 15.155 39.117 34.406 52.224 57.754s19.661 50.995 19.661 82.944v99.533zM1217.126 409.498c13.926 1.638 30.515 4.096 49.766 7.373s35.021 7.782 47.309 13.517c12.288 5.734 19.866 15.36 22.733 28.877s4.301 26.010 4.301 37.478c0 37.683-12.083 68.608-36.25 92.774s-64.921 36.25-122.266 36.25c-25.395 0-48.742-2.253-70.042-6.758s-39.936-12.288-55.91-23.347c-15.974-11.059-29.082-25.805-39.322-44.237s-16.998-41.574-20.275-69.427h-74.957c2.458 37.683 11.059 69.837 25.805 96.461s33.792 48.333 57.139 65.126c23.347 16.794 50.381 29.082 81.101 36.864s63.283 11.674 97.69 11.674c31.949 0 62.054-3.482 90.317-10.445s52.838-18.022 73.728-33.178c20.89-15.155 37.274-35.43 49.152-60.826s17.818-56.525 17.818-93.389v-346.522c0-28.672 5.12-46.899 15.36-54.682s30.925-5.939 62.054 5.53v-57.754c-5.734-1.638-14.131-4.096-25.19-7.373s-21.914-4.915-32.563-4.915c-11.469 0-22.528 1.229-33.178 3.686-12.288 1.638-22.118 5.53-29.491 11.674s-13.312 13.517-17.818 22.118c-4.506 8.602-7.578 18.022-9.216 28.262s-2.458 21.094-2.458 32.563c-31.13-34.407-66.765-60.621-106.906-78.643s-83.558-27.034-130.253-27.034c-27.853 0-54.681 3.686-80.486 11.059s-48.538 18.842-68.198 34.406c-19.661 15.565-35.226 34.611-46.694 57.139s-17.203 49.357-17.203 80.486c0 108.135 74.137 172.032 222.413 191.693l101.99 13.517z" />
<glyph unicode="&#xe93b;" glyph-name="pixabay" horiz-adv-x="1615" d="M385.454 535.985c-36.714 25.98-63.391 52.318-63.391 84.809h-204.145c0-58.471-26.677-84.809-59.592-84.809h-54.519v-593.667h1060.104v593.667h-678.457zM322.055 366.37h-191.034v84.809h212.021v-68.243l-20.987-16.567zM680.888 36.199c-120.948 0-219.358 97.141-219.358 216.55s98.404 211.556 219.358 211.556c120.948 0 219.347-92.142 219.347-211.556 0-119.407-98.396-216.55-219.347-216.55zM798.806 252.749c0-64.188-52.9-116.419-117.908-116.419-65.020 0-117.918 52.23-117.918 116.419 0 64.195 52.899 116.409 117.918 116.409 65.010 0 117.908-52.222 117.908-116.409zM1615.198 616.744l-263.928-672.831-202.52 81.217v114.667l140.647-57.557 185.713 473.405-695.898 266.082-64.5-200.936h-116.124l118.742 339.24 897.867-343.285z" />
<glyph unicode="&#xe93c;" glyph-name="depositphotos" d="M659.602 337.449c-18.824-22.73-47.149-37.063-78.655-37.063-56.435 0-101.986 45.693-101.986 102.312 0 31.605 14.283 60.014 36.951 78.904l1.817 1.349-4.553-6.143c-10.872-16.353-17.215-35.905-17.215-57.060 0-56.604 45.551-102.312 101.986-102.312 21.081 0 40.565 6.366 56.875 17.276l6.116 4.568-1.337-1.832zM584.895 532.675c-70.476 0-127.582-57.29-127.582-127.778 0-70.469 57.106-127.774 127.582-127.774 70.266 0 127.368 57.305 127.368 127.774 0 70.488-57.102 127.778-127.368 127.778zM584.293 232.918c-95.257 0-172.8 77.582-172.8 172.911 0 95.318 77.543 172.689 172.8 172.689 95.234 0 172.574-77.371 172.574-172.689 0-95.329-77.34-172.911-172.574-172.911zM584.293 618.74c-117.978 0-213.89-95.745-213.89-213.793 0-118.078 95.912-214.059 213.89-214.059 117.982 0 213.024 95.981 213.024 214.059 0 118.047-95.042 213.793-213.024 213.793zM880.135 609.287h-35.787c-12.198 0-22.128-9.897-22.128-22.403v-23.941c0-12.501 9.93-22.672 22.128-22.672h35.787c12.179 0 22.128 10.171 22.128 22.672v23.941c0 12.506-9.949 22.403-22.128 22.403zM968.492 222.973c0-58.202-42.297-87.99-100.001-87.99h-569.497c-65.821 0-100.337 13.421-100.337 82.468v358.71c0 68.755 36.273 99.331 102.094 99.331h124.163c0 0 38.312 65.001 38.714 65.16 3.874 6.015 13.846 20.378 38.549 20.378 22.538 0 130.878 0 140.72 0 25.439 0 34.724-11.461 39.676-20.378 0.897-1.606 40.347-65.16 40.347-65.16h146.238c65.564 0 99.334-30.576 99.334-99.331v-353.188zM953.232 707.733c-88.474 150.589-258.821 251.93-444.655 251.93-280.264 0-508.578-229.351-508.578-511.958 0-282.616 228.313-511.705 508.578-511.705 135.029 0 265.573 52.744 356.599 139.631 84.384 2.583 155.658 41.182 159.080 147.675v373.742c0 49.248-29.237 91.52-71.024 110.685z" />
<glyph unicode="&#xe93d;" glyph-name="text-layers" d="M662.447 632.985c4.433 8.861 3.349 19.483-2.782 27.266-6.127 7.784-16.196 11.329-25.852 9.102l-332.57-76.747c-13.767-3.177-22.352-16.913-19.175-30.679s16.913-22.352 30.679-19.175l113.109 26.102 113.326-67.994-24.828-49.651c-6.319-12.638-1.195-28.006 11.439-34.325 12.638-6.315 28.006-1.195 34.325 11.443l102.327 204.658zM562.129 546.757l-64.448 38.671 94.711 21.857-30.263-60.528zM486.579 247.386l-460.485 266.057c-7.675 4.096-13.815 10.748-18.419 18.419-4.093 7.677-6.651 16.375-6.651 25.584s2.047 17.908 6.651 25.582c4.605 7.675 10.745 14.326 18.419 18.931l460.485 266.057c8.183 4.093 16.883 6.651 25.579 6.651 9.212 0 17.911-2.558 26.095-6.651l460.484-266.057c7.676-4.605 13.815-11.256 18.419-18.931 4.092-7.674 6.652-16.884 6.652-25.582s-2.048-17.908-7.164-25.072c-4.092-8.183-10.743-14.323-18.419-18.931l-460.484-266.057c-7.671-4.092-16.371-6.652-25.583-6.652-9.207 0-17.907 2.048-25.579 6.652zM870.315 560.004l-358.157 204.659-358.152-206.705 358.152-205.172 358.157 207.219zM512.158 114.871l434.901 251.217c6.14 3.072 12.279 5.628 18.931 6.14 6.652 1.024 13.815 0.512 19.955-1.024 6.652-1.532 12.791-4.604 17.907-8.695 5.628-4.096 9.724-9.212 13.303-14.839 3.584-5.628 5.628-12.279 6.652-18.931 0.512-6.652 0-13.303-1.536-19.955-1.532-6.647-4.604-12.787-8.695-17.907-4.096-5.628-9.724-9.719-15.351-13.299l-460.484-266.057c-7.671-4.096-16.371-6.652-25.583-6.652-9.207 0-17.907 2.044-25.579 6.652l-460.485 266.057c-6.14 3.58-11.256 8.183-15.349 13.299-4.093 5.12-7.163 11.26-8.698 17.907-2.047 6.652-2.558 13.303-1.535 19.955s3.070 13.303 6.651 18.931c3.582 5.628 8.186 10.743 13.303 14.839 5.628 4.092 11.768 7.164 17.908 8.695 6.651 1.536 13.303 2.048 20.466 1.024 6.651-0.512 12.791-3.068 18.42-6.14l434.899-251.217z" />
<glyph unicode="&#xe93f;" glyph-name="text-secondary" d="M1024 680.727v279.273h-279.275v-93.091h-465.453v93.091h-279.273v-279.273h93.091v-465.453h-93.091v-279.275h279.273v93.090h465.453v-93.090h279.275v279.275h-93.090v465.453h93.090zM93.091 866.909h93.091v-93.091h-93.091v93.091zM186.182 29.090h-93.091v93.090h93.091v-93.090zM744.725 122.18h-465.453v93.094h-93.091v465.453h93.091v93.091h465.453v-93.091h93.094v-465.453h-93.094v-93.094zM930.91 29.090h-93.090v93.090h93.090v-93.090zM837.82 773.818v93.091h93.090v-93.091h-93.090zM592.525 354.91h-162.445l-33.978-93.090h-75.404l158.257 418.908h65.161l158.72-418.908h-75.87l-34.441 93.090zM451.025 413.555h121.485l-60.51 178.27-60.975-178.27z" />
<glyph unicode="&#xe940;" glyph-name="transform" d="M318.72 43.093c-139.52 66.56-239.36 201.813-254.72 362.24h-64c21.76-262.827 241.493-469.333 509.867-469.333 9.813 0 18.773 0.853 28.16 1.28l-162.56 162.987-56.747-57.173zM514.133 960c-9.813 0-18.773-0.853-28.16-1.707l162.56-162.56 56.747 56.747c139.52-66.133 239.36-201.387 254.72-361.813h64c-21.76 262.827-241.493 469.333-509.867 469.333zM682.667 362.667h85.333v256c0 47.36-38.4 85.333-85.333 85.333h-256v-85.333h256v-256zM341.333 277.333v512h-85.333v-85.333h-85.333v-85.333h85.333v-341.333c0-46.933 37.973-85.333 85.333-85.333h341.333v-85.333h85.333v85.333h85.333v85.333h-512z" />
<glyph unicode="&#xe941;" glyph-name="undo" d="M269.276 899.454c18.403-21.469 15.916-53.792-5.553-72.195l-74.114-63.526h450.435c203.618-0.104 375.74-165.659 383.671-369.211 8.401-215.223-168.687-398.793-383.863-398.793h-486.301v102.4h486.301c157.205 0 287.671 135.403 281.54 292.403-5.79 148.644-132.834 270.8-281.54 270.8h-465.042l91.797-91.796c19.995-19.995 19.995-52.411 0-72.409-19.995-19.994-52.413-19.994-72.408 0l-179.201 179.202c-10.084 10.085-15.506 23.918-14.959 38.169s7.014 27.628 17.842 36.909l179.201 153.601c21.469 18.402 53.792 15.916 72.195-5.553z" />
<glyph unicode="&#xe942;" glyph-name="unlocked" d="M800 618.667h-48v97.524c0 134.583-107.52 243.81-240 243.81s-240-109.227-240-243.81h96c0 80.945 64.32 146.286 144 146.286s144-65.341 144-146.286v-97.524h-432c-52.8 0-96-43.886-96-97.523v-487.62c0-53.636 43.2-97.523 96-97.523h576c52.8 0 96 43.887 96 97.523v487.62c0 53.638-43.2 97.523-96 97.523zM800 33.523h-576v487.62h576v-487.62zM512 179.81c52.8 0 96 43.887 96 97.523s-43.2 97.523-96 97.523c-52.8 0-96-43.887-96-97.523s43.2-97.523 96-97.523z" />
<glyph unicode="&#xe943;" glyph-name="zoom-in" d="M731.849 315.977h-46.255l-16.393 15.808c57.378 66.743 91.921 153.395 91.921 247.655 0 210.186-170.377 380.56-380.562 380.56s-380.56-170.374-380.56-380.56c0-210.185 170.374-380.562 380.56-380.562 94.26 0 180.912 34.543 247.655 91.921l15.808-16.393v-46.255l292.74-292.151 87.236 87.236-292.151 292.74zM380.56 315.977c-145.784 0-263.465 117.679-263.465 263.463s117.681 263.465 263.465 263.465c145.784 0 263.463-117.681 263.463-263.465s-117.679-263.463-263.463-263.463zM409.834 725.809h-58.548v-117.096h-117.096v-58.548h117.096v-117.095h58.548v117.095h117.095v58.548h-117.095v117.096z" />
<glyph unicode="&#xe944;" glyph-name="close" d="M1024 856.869l-103.13 103.131-408.87-408.869-408.869 408.869-103.131-103.131 408.869-408.869-408.869-408.87 103.131-103.13 408.869 408.87 408.87-408.87 103.13 103.13-408.87 408.87 408.87 408.869z" />
<glyph unicode="&#xe945;" glyph-name="star-outline" d="M512 280.667l160-96-42 182 142 124-188 16-72 172-72-172-188-16 142-124-42-182zM938 544.667l-232-202 70-300-264 160-264-160 70 300-232 202 306 26 120 282 120-282z" />
<glyph unicode="&#xe946;" glyph-name="star" d="M512 202.667l-264-160 70 300-232 202 306 26 120 282 120-282 306-26-232-202 70-300z" />
<glyph unicode="&#xe947;" glyph-name="thumb-up-outline" d="M170 554.667q18 0 31-12t13-30v-384q0-18-13-31t-31-13h-84v470h84zM598 852.667l18-20q24-24 38-52 6-14 4-28l-40-198h236q34 0 59-26t25-60v-46q0-18-6-34l-114-262q-26-42-74-42h-346q-42 0-71 29t-29 71v334q0 36 26 62zM560 694.667l-176-174v-336q0-14 14-14h346l110 252v46h-236q-38 0-65 31t-17 71z" />
<glyph unicode="&#xe948;" glyph-name="thumb-up" d="M932 388.667l-114-262q-26-42-74-42h-346q-40 0-70 30t-30 70v334q0 36 26 62l274 272 18-20q24-24 38-52 6-14 4-28l-40-198h236q34 0 59-26t25-60v-46q0-18-6-34zM86 84.667v470h84q18 0 31-12t13-30v-384q0-18-13-31t-31-13h-84z" />
<glyph unicode="&#xe949;" glyph-name="fullscreen" d="M896 468.667v342h-342l142-140-428-428-140 142v-342h342l-142 140 428 428z" />
<glyph unicode="&#xe94a;" glyph-name="fullscreen-close" d="M938 792.667l-226-226 142-140h-342v342l140-142 226 226zM146 0.667l226 226 140-142v342h-342l142-140-226-226z" />
<glyph unicode="&#xe94b;" glyph-name="cloud-upload" d="M825.6 531.627c-29.013 147.2-158.293 257.707-313.6 257.707-123.307 0-230.4-69.973-283.733-172.373-128.427-13.653-228.267-122.453-228.267-254.293 0-141.227 114.773-256 256-256h554.667c117.76 0 213.333 95.573 213.333 213.333 0 112.64-87.467 203.947-198.4 211.627zM810.667 192h-554.667c-94.293 0-170.667 76.373-170.667 170.667 0 87.467 65.28 160.427 151.893 169.387l45.653 4.693 21.333 40.533c40.533 78.080 119.893 126.72 207.787 126.72 111.787 0 208.213-79.36 229.973-189.013l12.8-64 65.28-4.693c66.56-4.267 118.613-60.16 118.613-126.293 0-70.4-57.6-128-128-128zM341.333 405.333h108.8v-128h123.733v128h108.8l-170.667 170.667-170.667-170.667z" />
<glyph unicode="&#xe94c;" glyph-name="color" horiz-adv-x="1067" d="M974.396 910.396c15.727-15.723 28.203-34.391 36.71-54.935 8.512-20.545 12.894-42.566 12.894-64.804s-4.382-44.259-12.894-64.803c-8.508-20.545-20.983-39.212-36.71-54.936l-86.524-86.524c15.142-31.525 20.122-66.975 14.251-101.454-5.875-34.475-22.315-66.278-47.044-91.008l-40.354-40.299c-21.167-21.163-49.873-33.054-79.808-33.054-29.931 0-58.637 11.891-79.808 33.054l-366.018-366.020c-15.726-15.731-34.398-28.211-54.948-36.723s-42.577-12.894-64.82-12.89h-101.594c-17.963 0-35.19 7.134-47.892 19.836s-19.837 29.931-19.837 47.893v101.594c0.005 22.246 4.394 44.275 12.916 64.828 8.522 20.548 21.011 39.219 36.752 54.942l365.963 366.018c-21.162 21.169-33.050 49.875-33.050 79.808s11.888 58.639 33.050 79.808l40.301 40.299c24.721 24.739 56.521 41.187 90.999 47.071s69.931 0.915 101.461-14.223l86.524 86.524c15.723 15.726 34.394 28.201 54.938 36.712s42.564 12.892 64.802 12.892c22.238 0 44.258-4.381 64.806-12.892 20.544-8.511 39.211-20.986 54.933-36.712zM495.497 511.305l-366.077-366.080-4.911-5.585c-7.541-9.852-11.628-21.909-11.627-34.317v-56.439h56.441l7.45 0.508c12.284 1.634 23.689 7.266 32.454 16.030l366.078 366.076-79.808 79.808zM894.532 830.589c-10.586 10.581-24.939 16.525-39.902 16.525-14.967 0-29.321-5.944-39.906-16.525l-119.317-119.373c-10.688-10.684-25.182-16.687-40.299-16.687-15.113 0-29.606 6.002-40.299 16.687-10.479 10.478-24.687 16.364-39.505 16.364-14.822 0-29.030-5.886-39.509-16.364l-40.299-40.299 239.42-239.421 40.299 40.299c10.479 10.479 16.367 24.687 16.367 39.509 0 14.818-5.888 29.028-16.367 39.507-10.684 10.69-16.687 25.185-16.687 40.299s6.003 29.609 16.687 40.299l119.373 119.316c5.248 5.242 9.412 11.466 12.254 18.318 2.837 6.852 4.301 14.196 4.301 21.614s-1.463 14.762-4.301 21.614c-2.842 6.852-7.061 13.076-12.309 18.319z" />
<glyph unicode="&#xe94d;" glyph-name="copy" d="M726.682 960h-549.727c-50.391 0-91.621-41.891-91.621-93.091v-651.634h91.621v651.634h549.727v93.091zM864.111 773.818h-503.914c-50.392 0-91.621-41.891-91.621-93.091v-651.637c0-51.2 41.229-93.090 91.621-93.090h503.914c50.394 0 91.622 41.89 91.622 93.090v651.637c0 51.2-41.229 93.091-91.622 93.091zM864.111 29.090h-503.914v651.637h503.914v-651.637z" />
<glyph unicode="&#xe94e;" glyph-name="format-align-justify" d="M0-64h1024v113.779h-1024v-113.779zM0 163.554h1024v113.779h-1024v-113.779zM0 391.113h1024v113.775h-1024v-113.775zM0 618.667h1024v113.778h-1024v-113.778zM0 960v-113.778h1024v113.778h-1024z" />
<glyph unicode="&#xe94f;" glyph-name="format-align-left" d="M1024 770.56c0 16.295-6.473 31.922-17.997 43.444-11.52 11.523-27.149 17.996-43.443 17.996h-901.12c-16.295 0-31.922-6.473-43.445-17.996s-17.995-27.15-17.995-43.444c0-16.295 6.473-31.922 17.995-43.444s27.15-17.996 43.445-17.996h901.12c16.294 0 31.923 6.473 43.443 17.996 11.524 11.522 17.997 27.15 17.997 43.444zM61.44 627.2h655.36c16.294 0 31.923-6.473 43.443-17.996 11.524-11.522 17.997-27.15 17.997-43.444s-6.473-31.922-17.997-43.443c-11.52-11.524-27.149-17.997-43.443-17.997h-655.36c-16.295 0-31.922 6.473-43.445 17.997-11.522 11.521-17.995 27.148-17.995 43.443s6.473 31.922 17.995 43.444c11.522 11.523 27.15 17.996 43.445 17.996zM61.44 422.4h901.12c16.294 0 31.923-6.473 43.443-17.997 11.524-11.52 17.997-27.149 17.997-43.443s-6.473-31.923-17.997-43.443c-11.52-11.524-27.149-17.997-43.443-17.997h-901.12c-16.295 0-31.922 6.473-43.445 17.997-11.522 11.52-17.995 27.149-17.995 43.443s6.473 31.923 17.995 43.443c11.522 11.524 27.15 17.997 43.445 17.997zM61.44 217.6h655.36c16.294 0 31.923-6.473 43.443-17.997 11.524-11.52 17.997-27.149 17.997-43.443s-6.473-31.923-17.997-43.443c-11.52-11.524-27.149-17.997-43.443-17.997h-655.36c-16.295 0-31.922 6.473-43.445 17.997-11.522 11.52-17.995 27.149-17.995 43.443s6.473 31.923 17.995 43.443c11.522 11.524 27.15 17.997 43.445 17.997z" />
<glyph unicode="&#xe950;" glyph-name="format-align-right" d="M0 770.56c0 16.295 6.473 31.922 17.995 43.444s27.15 17.996 43.445 17.996h901.12c16.294 0 31.923-6.473 43.443-17.996 11.524-11.522 17.997-27.15 17.997-43.444s-6.473-31.922-17.997-43.444c-11.52-11.523-27.149-17.996-43.443-17.996h-901.12c-16.295 0-31.922 6.473-43.445 17.996s-17.995 27.15-17.995 43.444zM962.56 627.2h-655.36c-16.295 0-31.922-6.473-43.444-17.996s-17.996-27.15-17.996-43.444c0-16.295 6.473-31.922 17.996-43.443 11.522-11.524 27.15-17.997 43.444-17.997h655.36c16.294 0 31.923 6.473 43.443 17.997 11.524 11.521 17.997 27.148 17.997 43.443s-6.473 31.922-17.997 43.444c-11.52 11.523-27.149 17.996-43.443 17.996zM962.56 422.4h-901.12c-16.295 0-31.922-6.473-43.445-17.997-11.522-11.52-17.995-27.149-17.995-43.443s6.473-31.923 17.995-43.443c11.522-11.524 27.15-17.997 43.445-17.997h901.12c16.294 0 31.923 6.473 43.443 17.997 11.524 11.52 17.997 27.149 17.997 43.443s-6.473 31.923-17.997 43.443c-11.52 11.524-27.149 17.997-43.443 17.997zM962.56 217.6h-655.36c-16.295 0-31.922-6.473-43.444-17.997-11.523-11.52-17.996-27.149-17.996-43.443s6.473-31.923 17.996-43.443c11.522-11.524 27.15-17.997 43.444-17.997h655.36c16.294 0 31.923 6.473 43.443 17.997 11.524 11.52 17.997 27.149 17.997 43.443s-6.473 31.923-17.997 43.443c-11.52 11.524-27.149 17.997-43.443 17.997z" />
<glyph unicode="&#xe951;" glyph-name="format-bold" d="M757.030 463.36c70.946 49.007 120.683 129.463 120.683 204.069 0 165.303-128 292.571-292.57 292.571h-457.143v-1024h514.927c152.866 0 271.36 124.343 271.36 277.21 0 111.181-62.903 206.263-157.257 250.15zM347.429 777.143h219.428c60.71 0 109.717-49.006 109.717-109.714s-49.007-109.714-109.717-109.714h-219.428v219.429zM603.43 118.857h-256.002v219.43h256.002c60.706 0 109.713-49.007 109.713-109.717 0-60.706-49.007-109.713-109.713-109.713z" />
<glyph unicode="&#xe952;" glyph-name="layouts" d="M102.4 772.267h819.2v-166.4h-819.2v166.4zM1024 785.067v-691.2c0-49.485-40.115-89.6-89.6-89.6h-844.8c-49.485 0-89.6 40.115-89.6 89.6v691.2c0 49.485 40.115 89.6 89.6 89.6h844.8c49.485 0 89.6-40.115 89.6-89.6zM921.6 503.467h-473.6v-396.8h473.6v396.8zM345.6 106.667v396.8h-243.2v-396.8h243.2z" />
<glyph unicode="&#xe953;" glyph-name="locked" d="M800 618.667h-48v97.524c0 134.583-107.52 243.81-240 243.81s-240-109.227-240-243.81v-97.524h-48c-52.8 0-96-43.886-96-97.523v-487.62c0-53.636 43.2-97.523 96-97.523h576c52.8 0 96 43.887 96 97.523v487.62c0 53.638-43.2 97.523-96 97.523zM368 716.19c0 80.945 64.32 146.286 144 146.286s144-65.341 144-146.286v-97.524h-288v97.524zM800 33.523h-576v487.62h576v-487.62zM512 179.81c52.8 0 96 43.887 96 97.523s-43.2 97.523-96 97.523c-52.8 0-96-43.887-96-97.523s43.2-97.523 96-97.523z" />
<glyph unicode="&#xe954;" glyph-name="magnet" d="M395.088 852.099c69.091 69.088 162.796 107.901 260.502 107.901s191.415-38.815 260.506-107.905c69.090-69.091 107.904-162.797 107.904-260.506 0-97.706-38.81-191.41-107.895-260.496l-253.837-253.956c-10.876-10.88-23.791-19.511-38.003-25.399-14.217-5.888-29.449-8.922-44.83-8.922-15.386 0-30.618 3.034-44.83 8.922s-27.127 14.515-38.003 25.395l-50.739 50.765c-10.88 10.876-19.511 23.791-25.399 38.003s-8.918 29.444-8.918 44.83c0 15.381 3.030 30.613 8.918 44.826 5.886 14.208 14.51 27.119 25.386 37.99l253.666 253.794c11.469 11.715 17.865 27.478 17.801 43.877-0.068 16.45-6.635 32.207-18.266 43.839s-27.388 18.196-43.836 18.263c-16.401 0.067-32.162-6.328-43.874-17.795l-253.686-253.696c-21.965-21.961-51.757-34.304-82.817-34.304-31.045 0-60.819 12.326-82.781 34.266l-50.861 50.752c-10.879 10.876-19.54 23.821-25.428 38.033s-8.919 29.444-8.919 44.83c0 15.381 3.031 30.615 8.919 44.827s14.518 27.126 25.397 38.002l253.924 253.865zM655.59 869.332c-73.664 0-144.307-29.262-196.395-81.349l-145.655-145.621 88.203-88.216 145.895 145.901c28.774 28.311 67.575 44.104 107.942 43.94s79.036-16.273 107.58-44.819c28.548-28.545 44.655-67.213 44.821-107.581 0.162-40.368-15.629-79.168-43.942-107.943l-0.252-0.256-145.609-145.677 88.201-88.188 145.596 145.664c52.087 52.087 81.357 122.739 81.357 196.402s-29.265 144.307-81.348 196.393c-52.087 52.087-122.735 81.349-196.395 81.349zM642.283 185.395l-88.201 88.188-44.105-44.13c-2.458-2.458-4.42-5.385-5.751-8.597-1.327-3.209-2.014-6.652-2.014-10.125 0-3.477 0.687-6.921 2.014-10.129 1.331-3.209 3.281-6.127 5.739-8.585l50.756-50.778c2.458-2.458 5.376-4.407 8.585-5.739 3.213-1.331 6.652-2.014 10.129-2.014 3.473 0 6.916 0.683 10.125 2.014s6.127 3.277 8.58 5.734l44.143 44.16zM337.634 490.031l-88.212 88.227-44.153-44.143c-2.458-2.458-4.407-5.373-5.737-8.585-1.33-3.209-2.015-6.652-2.015-10.125 0-3.477 0.685-6.916 2.015-10.129 1.328-3.204 3.273-6.118 5.724-8.572l50.843-50.731c4.962-4.962 11.723-7.778 18.74-7.778 7.014 0 13.742 2.786 18.703 7.744l44.093 44.092zM0 304.397c0 25.037 20.297 45.333 45.334 45.333h107.691c25.037 0 45.334-20.297 45.334-45.333s-20.297-45.333-45.334-45.333h-107.691c-25.037 0-45.334 20.297-45.334 45.333zM248.169 184.162c17.704-17.707 17.704-46.409 0-64.115l-76.146-76.143c-17.704-17.707-46.408-17.707-64.112 0-17.704 17.702-17.704 46.404 0 64.111l76.146 76.147c17.704 17.702 46.408 17.702 64.112 0zM368.405 134.349c25.037 0 45.334-20.297 45.334-45.333v-107.691c0-25.037-20.297-45.333-45.334-45.333s-45.334 20.297-45.334 45.333v107.691c0 25.037 20.297 45.333 45.334 45.333z" />
<glyph unicode="&#xe955;" glyph-name="menu" d="M0 106.667h1024v113.779h-1024v-113.779zM0 391.113h1024v113.775h-1024v-113.775zM0 789.333v-113.778h1024v113.778h-1024z" />
<glyph unicode="&#xe956;" glyph-name="reset" d="M563.81 874.667c-242.347 0-438.858-196.51-438.858-438.857h-146.286l195.048-194.56 195.048 194.56h-146.286c0 188.708 152.625 341.333 341.334 341.333 188.706 0 341.333-152.625 341.333-341.333 0-188.71-152.627-341.333-341.333-341.333-94.11 0-179.444 38.519-240.884 100.45l-69.242-69.244c79.482-79.479 188.71-128.73 310.127-128.73 242.347 0 438.857 196.51 438.857 438.857s-196.51 438.857-438.857 438.857z" />
<glyph unicode="&#xe957;" glyph-name="rotate" d="M500.365 820.364v139.636l-186.183-186.182 186.183-186.182v139.636c154.065 0 279.27-125.207 279.27-279.273 0-47.010-11.635-91.695-32.58-130.325l67.955-67.959c36.305 57.25 57.715 125.21 57.715 198.285 0 205.731-166.63 372.364-372.361 372.364zM500.365 168.725c-154.067 0-279.274 125.21-279.274 279.275 0 47.010 11.636 91.695 32.582 130.327l-67.956 67.956c-36.305-57.251-57.716-125.208-57.716-198.284 0-205.73 166.633-372.365 372.365-372.365v-139.635l186.18 186.18-186.18 186.185v-139.639z" />
<glyph unicode="&#xe958;" glyph-name="ruler" d="M788.002 847.917c-22.383 24.871-61.082 27.486-90.334-1.767l-50.637-50.639 59.904-59.906c18.095-18.095 18.095-47.433 0-65.527s-47.433-18.095-65.527 0l-59.904 59.906-73.481-73.478 59.908-59.906c18.095-18.095 18.095-47.433 0-65.527s-47.433-18.095-65.527 0l-59.908 59.906-73.475-73.478 59.907-59.904c18.095-18.095 18.095-47.433 0-65.527-18.096-18.095-47.434-18.095-65.529 0l-59.906 59.904-73.477-73.476 59.906-59.904c18.095-18.095 18.095-47.433 0-65.527s-47.432-18.095-65.527 0l-59.906 59.904-50.639-50.641c-0.574-0.572-1.164-1.131-1.767-1.673-24.871-22.387-27.485-61.086 1.767-90.338l120.471-120.469c0.574-0.576 1.133-1.165 1.677-1.766 22.383-24.87 61.081-27.486 90.334 1.766l583.817 583.82c0.576 0.574 1.165 1.134 1.771 1.677 24.87 22.384 27.486 61.082-1.771 90.335l-120.469 120.471c-0.572 0.574-1.131 1.164-1.677 1.767zM131.725 411.26l500.416 500.417c63.113 63.111 162.756 66.005 223.855-0.789l119.68-119.681c63.113-63.111 66.005-162.755-0.789-223.856l-583.028-583.031c-63.11-63.113-162.755-66.005-223.855 0.789l-119.681 119.68c-63.11 63.113-66.005 162.756 0.79 223.859l82.613 82.611z" />
<glyph unicode="&#xe959;" glyph-name="save" d="M796.446 960h-682.668c-63.147 0-113.778-51.2-113.778-113.778v-796.443c0-62.579 50.631-113.779 113.778-113.779h796.443c62.579 0 113.779 51.2 113.779 113.779v682.665l-227.554 227.555zM910.221 49.779h-796.443v796.443h635.449l160.994-160.995v-635.447zM512 448c-94.435 0-170.667-76.233-170.667-170.667s76.231-170.667 170.667-170.667c94.434 0 170.667 76.233 170.667 170.667s-76.233 170.667-170.667 170.667zM170.667 789.333h512v-227.555h-512v227.555z" />
</font>
</defs>
</svg>
